User Info

ADS

Torrent’s details
Name We Can't Change The World But, We Wanna Build a School in Cambodia.2011.DVD.x264
  You will need to Register or Login to download!
Info Hash 22949eff83f15dad32f9b06f9d07dabe3f21a631
Description We Can't Change The World But, We Wanna Build a School in Cambodia


http://asianwiki.com/We_Can't_Change_The_World_But,_We_Wanna_Build_a_School_in_Cambodia.

Movie: We Can't Change The World But, We Wanna Build a School in Cambodia.
Romaji: Bokutachi wa Sekai wo Kaeru Koto ga Dekinai. But, we wanna build a school in Cambodia.
Japanese: 僕たちは世界を変えることができない。 But, we wanna build a school in Cambodia.
Director: Kenta Fukasaku
Writer: Kota Hada, Shinzuke Yamaoka
Producer: Junichi Kazuki, Naoya Kinoshita, Hirohumi Shigemura, Nagao Hitachi, Isao Tsukamoto, Naoki Kitagawa, Hiroaki Kitano, Takeshi Onod, Gen Sato, Akio Hattori
Cinematographer: Kazuhiro Suzuki
Release Date: September 23, 2011
Runtime: 126 min.
Production Company: Toei, Central Arts
Distributor: Toei
Language: Japanese
Country: Japan
Subtitles:no available A.T.M



Based on the autobiographical novel "Bokutachi wa Sekai wo Kaeru Koto ga Dekinai" by Kota Hada.


Plot / Synopsis

Quote:
A young Japanese man named Kota Tanaka (Osamu Mukai) works to raise money and then build an elementary school in Cambodia.
August, 2005 - Kota Tanaka (Osamu Mukai) is a second year medical school student. Kota enjoys his days with friends Tadashi (Tasuku Emoto) and Masayuki (Masataka Kubota), but he also feels something is missing. He starts to think about whether anything changes can be made in his ordinary daily life. One day, by chance, Kota spots a pamphlet for a foreign volunteer guide.
The pamphlet asks for donations. With the donation money, the organization states we can build a school with a roof for kids. As soon as Kota picks up the pamphlet, his world starts to change. Kota sends emails to all of his friends purposing that they build a school in Cambodia. Most of his friends thinks the email is a joke or the idea is impossible to do, but Tadashi, Masayuki and Mitsuru (Tori Matsuzaka) believe in Kota's idea.
The four young men recruit people to join them at a club and hand out pamphlets. They also succeed in having a charity event. Finally, the guys come to a realization that collecting money is not enough. They decide to go to Cambodia.
When they arrive in Cambodia, they are shocked by people who have been injured by landmines and the prevalence of AIDS. When the boys go back to Japan, the IT company president who promised to support their cause is arrested. Because of this, their reputation is ruined ....




Code

Video
ID                             : 1
Format                         : AVC
Format/Info                    : Advanced Video Codec
Format profile                 : Main@L5.1
Format settings, CABAC         : Yes
Format settings, ReFrames      : 1 frame
Codec ID                       : avc1
Codec ID/Info                  : Advanced Video Coding
Duration                       : 2h 6mn
Bit rate                       : 2 206 Kbps
Width                          : 848 pixels
Height                         : 480 pixels
Display aspect ratio           : 16:9
Frame rate mode                : Constant
Frame rate                     : 29.970 fps
Color space                    : YUV
Chroma subsampling             : 4:2:0
Bit depth                      : 8 bits
Scan type                      : Progressive
Bits/(Pixel*Frame)             : 0.181
Stream size                    : 1.94 GiB (90%)
Language                       : English
Color primaries                : BT.709-2, SMPTE 274M, SMPTE 296M
Transfer characteristics       : BT.709-2, SMPTE 170M, SMPTE 274M, SMPTE 293M, SMPTE 296M
Matrix coefficients            : BT.709-2, SMPTE 274M, SMPTE 296M

Audio
ID                             : 2
Format                         : AAC
Format/Info                    : Advanced Audio Codec
Format profile                 : LC
Codec ID                       : 40
Duration                       : 2h 6mn
Bit rate mode                  : Constant
Bit rate                       : 240 Kbps
Nominal bit rate               : 320 Kbps
Channel(s)                     : 2 channels
Channel positions              : Front: L R
Sampling rate                  : 48.0 KHz
Compression mode               : Lossy
Stream size                    : 216 MiB (10%)
Language                       : English



Screenshot











IMDB No IMDB ID been added..
Category Japanese Movie
Rating
Size 2.16 GB
Show/Hide Files
1 file
AddDate 29/05/2012
Uploader ANONYMOUS
Speed 14.59 KB/sec
Down 319 times
peers seeds: 6, leechers: 0 = 6 peers
Who thanked
Report
Reseed


19/12/2013 12.38 pm

thank you!!
29/10/2013 06.28 pm

Someone sub this soon cry.gif
12/10/2013 11.35 am

Hope someone to sub this movie.
24/09/2013 02.22 pm

I need english subs ohmy.gif
15/09/2013 06.18 pm

english subtitles? even fansubs?? sad.gif
10/08/2013 04.40 pm

Just a quick question because I got confused.

It says on the code box that languange is in ENGLISH.

So is the movie English dubbed or not? I really want to watch this movie but my Japanese comprehension is still not enough for me to watch an entire movie. sad.gif
09/07/2013 03.11 am

I am a Cambodian here... hehe
09/07/2013 03.11 am

I am a Cambodian here... hehe
27/05/2013 10.13 pm

Subtitles please cry.gif
18/02/2013 04.10 am

Thank you soooo much for this upload! I never thought I would find this movie... If the English subtitle is released, I can translate it to Portuguese... not many users here speak Portuguese, I think, but... well, at least there will be one more language available... But for now, can't wait for the english subtitles =)
29/01/2013 05.16 pm

YES ! PLEASE WE NEED SUB!
06/01/2013 07.04 am

I speak Khmer. Anybody still interested in doing the sub? email me at nindin@bellsouth.net
24/12/2012 03.06 am

if someone wants to sub this but dont know anyone who can speak cambodian and English, i can help u with the subtitle from khmer to english. if u need my help just email at solinda050191@yahoo.com.grin.gifgrin.gif
20/12/2012 01.32 pm

i really want to say thank u for this moviesmile1.gif
16/11/2012 04.42 pm

oh thanks for this!!! I really hope there's a subtitle soon! Thanks again!wink.gif
27/10/2012 10.59 am

Hi .... watched it without subtitles but of course, definitely with English subtitles would be better! So please please please sub!
01/09/2012 12.35 pm

Finally smile1.gif Hopefully subs will up soon.
14/08/2012 04.19 am

I was looking for this movie! I saw on a plane before go to Cambobia, so it was like a "preview" of the country for me... I really want to show this movie to my friends... just waiting for the english subs... Keep the good work, you rock!
21/07/2012 02.22 pm

I watched this movie on the plane, it's really heartwarming and enlightening! Recommended.
13/07/2012 10.48 pm

sub please... i have been waiting for whole year for this movienoexpression.gif
11/07/2012 11.32 pm

still no subs?
21/06/2012 11.47 am

I second KuRoKaMi1063's motion... Subs pls..
21/06/2012 11.19 am

Thanks for uploading smile1.gif
I'd be even more gratefull if a kind soul could sub this tongue.gif
21/06/2012 09.27 am

Thank you very muchgrin.gif
11/06/2012 06.16 pm

THANK YOU VERY MUCH

please English subtitle (we are waiting)
09/06/2012 11.35 am

pls sub... (english) thanx
30/05/2012 07.02 pm

Sorry for double post... net/lag problem  sad.gif
30/05/2012 07.00 pm

10x. Waiting for an english subtitle... keep up the good job... u are the best grin.gif
30/05/2012 06.58 pm

10x. Wainting for a english subtitle grin.gif...Keep up the good job... u are the best !
29/05/2012 11.39 pm

the "Say Thank You" button doesn't seem to work. cry.gif
29/05/2012 11.37 pm

OMG!!! this is a movie that I will definitely see. not only was i born in cambodia but I've never been there. It's good to see my home country on film.

Thank you so much for the upload!!!! grin.gif




ADS