User Info

ADS

Torrent’s details
Name Dr. Champ (2010) Complete (hardsubbed)
  You will need to Register or Login to download!
Info Hash 203e0879d13d982fb99a993a4ea4d3ee5b5ac50c
Description


http://wiki.d-addicts.com/Dr._Champ
http://www.hancinema.net/korean_drama_Doctor_Champ.php
http://asianmediawiki.com/Dr._Champ

Title: 닥터 챔프 / Dr. Champ
Also known as: Doctor Champ
Genre: Romance, sports, medical
Episodes: 16
Broadcast network: SBS
Broadcast period: 2010-Sep-27 to 2010-Nov-16
Air time: Monday & Tuesday 20:55
Language: Korean
Country: South Korea
Subtitles: English (hardsubbed)

Production Credits
Chief Producer: Oh Se Kang
Producer: Lee Hee Soo (이희수)
Director: Park Hyung Ki
Assistant Director: Nam Tae Jin (남태진)
Screenwriter: No Ji Seol (노지설)

Main Cast
Kim So Yun as Kim Yeon Woo
Uhm Tae Woong as Lee Do Wook
Jung Gyu Woon as Park Ji Heon
Cha Ye Ryun as Kang Hee Young
Ma Dong Suk as Oh Jung Dae
Jung Suk Won as Yoo Sang Bong
Kim Hyung Bum as Choi Ham Shik
Yum Dong Hyun (염동현) as Jung Ho Chang
Lee Shi Un as Heo Taek Woo
Shin Dong Hee as Kang Woo Ram
Jung Ui Kap as Choi Dae Sub
Moon Hee Kyung as Go Mi Ja (Yeon Woo's mother)
Heo Joon Suk as Kim Kyung Woo (Yeon Woo's older brother)

Recognitions
2010 SBS Drama Awards: Frontier Drama Award

Synopsis
Kim Yeon Woo is an orthopedic doctor who takes up a new post at Taereung National Village, the training center for national Olympic athletes, after she is fired from her previous job. She becomes romantically involved with Park Ji Heon, a young judo athlete, and Lee Do Wook, the short-tempered, crippled director of the facility who is still haunted by the injury that had cut short his speed-skating career. This is further complicated by the presence of the swimming coach, Hee Young, who becomes her rival for the attentions of Do Wook.

General
Complete name                    : Dr Champ - 01.mp4
Format                           : MPEG-4
Format profile                   : Base Media
Codec ID                         : isom
File size                        : 190 MiB
Duration                         : 1h 0mn
Overall bit rate                 : 443 Kbps

Video
ID                               : 1
Format                           : AVC
Format/Info                      : Advanced Video Codec
Format profile                   : High@L3.1
Format settings, CABAC           : Yes
Format settings, ReFrames        : 8 frames
Codec ID                         : avc1
Codec ID/Info                    : Advanced Video Coding
Duration                         : 1h 0mn
Bit rate mode                    : Variable
Bit rate                         : 400 Kbps
Maximum bit rate                 : 1 313 Kbps
Width                            : 800 pixels
Height                           : 450 pixels
Display aspect ratio             : 16:9
Frame rate mode                  : Constant
Frame rate                       : 29.970 fps
Color space                      : YUV
Chroma subsampling               : 4:2:0
Bit depth                        : 8 bits
Scan type                        : Progressive
Bits/(Pixel*Frame)               : 0.037
Stream size                      : 172 MiB (90%)
Title                            : Video
Writing library                  : x264 core 104 r1683 62997d6

Audio
ID                               : 2
Format                           : AAC
Format/Info                      : Advanced Audio Codec
Format version                   : Version 4
Format profile                   : LC
Format settings, SBR             : Yes
Format settings, PS              : No
Codec ID                         : 40
Duration                         : 1h 0mn
Bit rate mode                    : Variable
Bit rate                         : 40.0 Kbps
Maximum bit rate                 : 44.7 Kbps
Channel(s)                       : 2 channels
Channel positions                : Front: L R
Sampling rate                    : 48.0 KHz
Stream size                      : 17.2 MiB (9%)




IMDB
IMDB Extra
More.Info
Category Korean TV
Rating
Size 2.83 GB
Show/Hide Files
18 files
AddDate 13/06/2011
Uploader ANONYMOUS
Speed 0 KB/sec
Down 386 times
peers seeds: 7, leechers: 0 = 7 peers
Who thanked
Report
Reseed


24/11/2013 03.40 am

thank yougrin.gif
04/07/2013 02.51 am

please seed cry.gif
14/04/2013 10.57 am

Thank you
08/09/2012 09.21 am

please seed sad.gif i'm stuck at episodes 10-16 sad.gifcry.gif
27/08/2012 01.45 am

Please seed!cry.gif
01/06/2012 07.43 am

seeds please!!
30/05/2012 08.03 pm


THANK YOU!!! I like about sport films. yes.gif
/e.g.: Ashita No Joe – Great! /
27/05/2012 08.10 pm

please seed thissmile1.gif
03/02/2012 10.59 am

thank you
13/06/2011 12.58 pm

I was hoping the other day you would make this series into a small file and it's here today smile1.gif)))
Thank you as always gettora, you're the best.smile1.gif




ADS