User Info

ADS

Torrent’s details
Name Animal ( Pinoy CAT III )
  You will need to Register or Login to download!
Info Hash 1ef04893b08508686bc005b86948760473a282e8
Description Warning : This movie contains explicit rape content. Not suitable for viewers under age 18




Synopsis

Jaco(John Regala) is feared by the people in their own town. Together with his gang. Jaco creates terror and havoc. They pick fights, take drugs, hit on women. Jaco and his cohorts get away with it because Jacos family is rich and influential. Until one day when a woman Jaco molests and leaves for dead recovers and presses charges. To top it all, one of his gangmates sides with the complaint. Are Jacos days of living wildly and dangerously truly over? Will Jacos victims get the justice that they deserve?

Starring: Gardo Verzosa, John Regala, Pyar Mirasol, Via Veloso
Genre: Horror / Suspense
Language: Filipino
Rating: Restricted Restricted
subtitle:No


Code
General
Complete name                  : Animal_Pinoy.avi
Format                         : AVI
Format/Info                    : Audio Video Interleave
File size                      : 568 MiB
Duration                       : 1h 38mn
Overall bit rate               : 803 Kbps
Writing library                : MPlayer

Video
ID                             : 0
Format                         : MPEG-4 Visual
Format profile                 : Simple@L1
Format settings, BVOP          : No
Format settings, QPel          : No
Format settings, GMC           : No warppoints
Format settings, Matrix        : Default (H.263)
Codec ID                       : DX50
Codec ID/Hint                  : DivX 5
Duration                       : 1h 38mn
Bit rate                       : 574 Kbps
Width                          : 352 pixels
Height                         : 240 pixels
Display aspect ratio           : 4:3
Frame rate                     : 23.976 fps
Standard                       : NTSC
Color space                    : YUV
Chroma subsampling             : 4:2:0
Bit depth                      : 8 bits
Scan type                      : Progressive
Compression mode               : Lossy
Bits/(Pixel*Frame)             : 0.283
Stream size                    : 406 MiB (71%)
Writing library                : Lavc51.47.2

Audio
ID                             : 1
Format                         : MPEG Audio
Format version                 : Version 1
Format profile                 : Layer 3
Mode                           : Joint stereo
Mode extension                 : MS Stereo
Codec ID                       : 55
Codec ID/Hint                  : MP3
Duration                       : 1h 38mn
Bit rate mode                  : Constant
Bit rate                       : 224 Kbps
Channel(s)                     : 2 channels
Sampling rate                  : 44.1 KHz
Compression mode               : Lossy
Stream size                    : 158 MiB (28%)
Alignment                      : Split accross interleaves
Interleave, duration           : 500 ms (11.99 video frames)
Interleave, preload duration   : 500 ms








IMDB No IMDB ID been added..
Category Philippines - Erotic/+18
Rating
Size 567.86 MB
Show/Hide Files
1 file
AddDate 29/11/2012
Uploader ANONYMOUS
Speed 0 KB/sec
Down 1220 times
peers seeds: 8, leechers: 1 = 9 peers
Who thanked
Report
Reseed


04/04/2013 02.13 pm

thanks for the uploadtongue.gif
02/12/2012 12.56 pm

thanks for the upload smile1.gif
30/11/2012 02.41 pm

i love pinoy movieswink.gif
29/11/2012 09.08 pm

add full media info




ADS