User Info

ADS

Torrent’s details
Name In the Line of Duty IV (1989) - Donnie Yen, Cynthia Khan [x264]
  You will need to Register or Login to download!
Info Hash 1d8f25027d20e64809d19f26a9b0f0df915faf85
Description

Title: In the Line of Duty IV


Other Titles: 皇家師姐IV直擊證人, Wong ga si je ji IV: Jik gik jing yan
Year: 1989
Directed by: Yuen Woo Ping
Genre: Action, Crime, Martial Arts
Runtime: 90 min
Country: Hong Kong
Language: Cantonese | English Audio Commentary with Michael Wong & Stefan Hammond (Dual Audio)
Subtitles: English (srt)
Extras: Interview with Donnie Yen, Donnie Yen Biography, Yuen Woo Ping Biography
More info at: Imdb & Hkcinemagic
Source: tehparadox.com (credits for the rip go to smokey888!!!)


Cast:

Cynthia Khan Lai Ching
Michael Wong Man Tak
Donnie Yen Chi Tan
Yuen Yat Chor
Liu Kai Chi
Lisa Chiao Chiao
Yuen Shun Yee
Michael Woods
John Salvitti
Stephan Berwick
Farlie Ruth Kordica
Cho Wing
Eddie Maher
Paul Wong Kwan

Synopsis/Plot:

Two detectives who are up to their necks in trouble and in each other's face, as they try to shut down a drug-trafficking scheme that could be connected with international ties to organized crime. But in the mist of their investigation, innocent immigrant dock worker Luk Wan-Ting gets caught up in the mix when he witnesses the murder of an intelligence operative and is framed for the crime. After escaping police custody and after his friend is brutally killed by hired assassins in search of a film negative that Luk lost, he has no choice but to return to Hong Kong until the heat cools off. Donny and Penny Yeung are called in to extradite him with the aid of Captain Michael. Penny believes that Luk is innocent and tries to do everything in her power to help him, while Donny who is skeptical about Luk's innocence, thinks he's guilty and does his best to snap the cuffs on him. As the two do more investigating...  (source: imdb.com)













Coming soon in high quality:

  • Dance of the Drunken Mantis (1979) (Cantonese)
  • Dragons Forever (1987) uncut (incl. 2 missing Yuen Biao scenes) incl. Extras (Cantonese)
  • Knockabout (1979) incl. Extras (Cantonese)
  • Project A (1983) & Project A II (1987) incl. Extras (Cantonese)
  • Snake and Crane Arts of Shaolin (1978) (Mandarin)

    Coming soon from the hard to find section:

  • Baka yarô! 4 - Yuen Biao segment only (1991) (Japanese)
  • Circus Kid (1994) (Cantonese)
  • Hunted Hunter/File X Murderer(1997) (Mandarin)
  • Rosa (1986) (Cantonese)
  • Setting Sun/Rakuyo (1992) (Japanese)
  • The Champions (1983) (Cantonese)
  • Tough Beauty and the Sloppy  (1995) (Mandarin)


    Code
    Format                           : Matroska
    File size                        : 1.53 GiB
    Duration                         : 1h 30mn
    Overall bit rate                 : 2 403 Kbps
    Encoded date                     : UTC 2009-05-08 14:23:02
    Writing application              : mkvmerge v2.7.0 ('Do It Again') built on Apr 15 2009 00:27:10
    Writing library                  : libebml v0.7.7 + libmatroska v0.8.1

    Video
    ID                               : 1
    Format                           : AVC
    Format/Info                      : Advanced Video Codec
    Format profile                   : High@L4.1
    Format settings, CABAC           : Yes
    Format settings, ReFrames        : 3 frames
    Codec ID                         : V_MPEG4/ISO/AVC
    Duration                         : 1h 30mn
    Bit rate                         : 2 129 Kbps
    Width                            : 768 pixels
    Height                           : 432 pixels
    Display aspect ratio             : 16:9
    Frame rate                       : 25.000 fps
    Color space                      : YUV
    Chroma subsampling               : 4:2:0
    Bit depth                        : 8 bits
    Scan type                        : Progressive
    Bits/(Pixel*Frame)               : 0.257
    Stream size                      : 1.32 GiB (87%)
    Title                            : In the Line of Duty 4 (1989) -=Ripped by smokey888-tehPARADOX.COM=-
    Writing library                  : x264 core 67 r1145M d2e1e1c
    Encoding settings                : cabac=1 / ref=3 / deblock=1:0:0 / analyse=0x3:0x113 / me=umh / subme=7 / psy_rd=1.0:0.0 / mixed_ref=1 / me_range=12 / chroma_me=1 / trellis=2 / 8x8dct=1 / cqm=0 / deadzone=21,11 / chroma_qp_offset=-2 / threads=3 / nr=0 / decimate=1 / mbaff=0 / bframes=3 / b_pyramid=0 / b_adapt=2 / b_bias=0 / direct=3 / wpredb=1 / keyint=250 / keyint_min=25 / scenecut=40 / rc=2pass / bitrate=2129 / ratetol=1.0 / qcomp=0.50 / qpmin=10 / qpmax=51 / qpstep=4 / cplxblur=20.0 / qblur=0.5 / vbv_maxrate=24000 / vbv_bufsize=24000 / ip_ratio=1.10 / pb_ratio=1.10 / aq=1:1.00
    Language                         : Chinese

    Audio #1
    ID                               : 2
    Format                           : AC-3
    Format/Info                      : Audio Coding 3
    Mode extension                   : CM (complete main)
    Codec ID                         : A_AC3
    Duration                         : 1h 30mn
    Bit rate mode                    : Constant
    Bit rate                         : 192 Kbps
    Channel(s)                       : 2 channels
    Channel positions                : Front: L R
    Sampling rate                    : 48.0 KHz
    Bit depth                        : 16 bits
    Compression mode                 : Lossy
    Stream size                      : 125 MiB (8%)
    Title                            : Cantonese - In the Line of Duty 4 (1989) -=Ripped by smokey888-tehPARADOX.COM=-
    Language                         : Chinese

    Audio #2
    ID                               : 3
    Format                           : MPEG Audio
    Format version                   : Version 1
    Format profile                   : Layer 3
    Mode                             : Joint stereo
    Mode extension                   : MS Stereo
    Codec ID                         : A_MPEG/L3
    Codec ID/Hint                    : MP3
    Duration                         : 1h 30mn
    Bit rate mode                    : Constant
    Bit rate                         : 80.0 Kbps
    Channel(s)                       : 2 channels
    Sampling rate                    : 32.0 KHz
    Compression mode                 : Lossy
    Stream size                      : 52.0 MiB (3%)
    Title                            : Audio Commentary - In the Line of Duty 4 (1989) -=Ripped by smokey888-tehPARADOX.COM=-
    Writing library                  : LAME3.98r
    Encoding settings                : -m j -V 4 -q 2 -lowpass 13.5 -b 80
    Language                         : English





  • IMDB
    IMDB Extra
    More.Info
    Category Hong Kong Movie
    Rating
    Size 2.04 GB
    Show/Hide Files
    5 files
    AddDate 22/01/2011
    Uploader ANONYMOUS
    Speed 0.26 KB/sec
    Down 581 times
    peers seeds: 5, leechers: 3 = 8 peers
    Who thanked
    Report
    Reseed


    26/01/2014 09.07 am

    i wl waiting 4 this last 3 years...superb[color='green'][bg-color='black']grin.gifgrin.gif
    09/01/2014 09.08 pm

    Does anyone have the second one? In the Line of Duty 2? TIA
    19/08/2012 07.26 am

    yea donnie yen my favorite martial arts superstar...thanks
    22/08/2011 06.37 am

    I'm back again, this time I would like to say thank you.....a very Big THANK YOU.....wink.gifwink.gifwink.gifwink.gifwink.gifwink.gifthumbsup.gifthumbsup.gif
    22/08/2011 01.23 am

    help again, I'm stuck at 97,1%. Thank you very much.......grin.gif
    24/02/2011 07.13 am

    khogen: just search for the donnie yen movies by title here and download them. Use imdb, asianmediawiki or hkcinemagic as reference. You won't find a compilation in one torrent here as that will be nuked for being a dupe.
    24/02/2011 05.16 am

    Thanks a lot.Can someone please upload all the Donnie Yen movies in one torrent.Cheers!!!
    22/01/2011 12.26 pm

    Great job...thanks a lot




    ADS