User Info

ADS

Torrent’s details
Name [MV] HYADAIN - Warai no Kamisama ga Orite Kita! (1280x720 h264 AAC).mp4
  You will need to Register or Login to download!
Info Hash 1d20e0e99426caa33abdb45bf0f78ed0082545d6
Description Artist: HYADAIN(ヒャダイン)
Music Video: Warai no Kamisama ga Orite Kita!(笑いの神様が降りてきた!)
Single release date: May 29, 2013




Code
General Information

Format                         : MPEG-4
Format profile                 : Base Media
Codec ID                       : isom
File size                      : 111 MiB
Duration                       : 4mn 37s
Overall bit rate mode          : Variable
Overall bit rate               : 3 365 Kbps


Video Information

ID                             : 1
Format                         : AVC
Format/Info                    : Advanced Video Codec
Format profile                 : High@L3.1
Format settings, CABAC         : Yes
Format settings, ReFrames      : 4 frames
Codec ID                       : avc1
Codec ID/Info                  : Advanced Video Coding
Duration                       : 4mn 37s
Bit rate                       : 3 235 Kbps
Maximum bit rate               : 6 629 Kbps
Width                          : 1 280 pixels
Height                         : 720 pixels
Display aspect ratio           : 2.000
Frame rate mode                : Constant
Frame rate                     : 29.970 fps
Color space                    : YUV
Chroma subsampling             : 4:2:0
Bit depth                      : 8 bits
Scan type                      : Progressive
Bits/(Pixel*Frame)             : 0.117
Stream size                    : 107 MiB (96%)
Color primaries                : BT.709
Transfer characteristics       : BT.709
Matrix coefficients            : BT.709


Audio Information

ID                             : 2
Format                         : AAC
Format/Info                    : Advanced Audio Codec
Format profile                 : LC
Codec ID                       : 40
Duration                       : 4mn 37s
Bit rate mode                  : Variable
Bit rate                       : 128 Kbps
Maximum bit rate               : 199 Kbps
Channel(s)                     : 2 channels
Channel positions              : Front: L R
Sampling rate                  : 48.0 KHz
Compression mode               : Lossy
Delay relative to video        : 67ms
Stream size                    : 4.23 MiB (4%)


IMDB No IMDB ID been added..
Category Japanese Music
Rating N/A
Size 111.49 MB
Show/Hide Files
1 file
AddDate 24/05/2013
Uploader ANONYMOUS
Speed 0 KB/sec
Down 10 times
peers seeds: 2, leechers: 0 = 2 peers
Who thanked
Report
Reseed


No comments...




ADS