User Info

ADS

Torrent’s details
Name Won't Last a Day Without You 2011 DVDRip XviD-RiZAL
  You will need to Register or Login to download!
Info Hash 1cdde8eb2c3759d068306abeabb079e34a584881
Description


Wont.Last.a.Day.Without.You.2011.DVDRip.XviD-RiZAL

General Information:

Complete name                            : Wont.Last.a.Day.Without.You.2011.DVDRip.XviD-RiZAL
Format                                   : AVI
Format/Info                              : Audio Video Interleave
File size                                : 1.40 GiB
Duration                                 : 1h 43mn
Overall bit rate                         : 1 944 Kbps
Language                                 : Tagalog | Filipino
Subs                                     : English Sub (If needed)
Source                                   : DVD5 Many THANKS
Encoder                                  : akosipalos

iMDB: http://www.imdb.com/title/tt2108661/

Video

ID                                       : 0
Format                                   : MPEG-4 Visual
Format profile                           : Advanced Simple@L5
Format settings, BVOP                    : 1
Format settings, QPel                    : No
Format settings, GMC                     : No warppoints
Format settings, Matrix                  : Default (H.263)
Muxing mode                              : Packed bitstream
Codec ID                                 : XVID
Codec ID/Hint                            : XviD
Duration                                 : 1h 43mn
Bit rate                                 : 1 810 Kbps
Width                                    : 656 pixels
Height                                   : 400 pixels
Display aspect ratio                     : 1.640
Frame rate                               : 23.976 fps
Color space                              : YUV
Chroma subsampling                       : 4:2:0
Bit depth                                : 8 bits
Scan type                                : Progressive
Compression mode                         : Lossy
Bits/(Pixel*Frame)                       : 0.288
Stream size                              : 1.30 GiB (93%)
Writing library                          : XviD 1.2.1 (UTC 2008-12-04)

Audio

ID                                       : 1
Format                                   : MPEG Audio
Format version                           : Version 1
Format profile                           : Layer 3
Mode                                     : Joint stereo
Mode extension                           : MS Stereo
Codec ID                                 : 55
Codec ID/Hint                            : MP3
Duration                                 : 1h 43mn
Bit rate mode                            : Constant
Bit rate                                 : 128 Kbps
Channel(s)                               : 2 channels
Sampling rate                            : 48.0 KHz
Compression mode                         : Lossy
Stream size                              : 94.4 MiB (7%)
Alignment                                : Aligned on interleaves
Interleave, duration                     : 167 ms (4.00 video frames)
Interleave, preload duration             : 216 ms

Plot:

Awarded radio personality George Harrison Apostol, known as DJ Heidee to her listeners (Sarah Geronimo), provides love advice to people who are having problems in their relationships. DJ Heidee receives a call from a girl named Melissa (Megan Young) who is asking advice on how to break up with her boyfriend Andrew (Gerald Anderson). Unfortunately, Andrew is listening to the same program and hears Heidee telling Melissa how they should break up. Andrew blames Heidee for what happened and even threatens to sue her for giving that particular advice. In order to prevent a legal battle, and to ease her conscience, Heidee decides to help Andrew win Melissa back. In the process of getting the two together, Andrew and Heidee begin to feel an attraction toward each other. Will they be able to overcome their past and become lovers instead?

Screens:




GREETZ:

SpEnSeR a.k.a FaggoT tongue.gif | RiZAL Team Release Crew | SANTi | RoCK | Ulap | rizal |  centserick2 | musikera | PRESTiGE | LEGiTiMATE | LEGi0N

Notes:
This is seeded w/ my fast Seedbox.. Don't forget to SEED for as long as possible wink.gif


IMDB
IMDB Extra
More.Info
Category Philippines Movie
Rating
Size 1.42 GB
Show/Hide Files
6 files
AddDate 15/02/2012
Uploader ANONYMOUS
Speed 0 KB/sec
Down 687 times
peers seeds: 1, leechers: 0 = 1 peers
Who thanked
Report
Reseed


04/08/2013 12.47 am

Can we have sub eng? Thank you! Thank you for all! wink.gif ^_^
29/12/2012 05.08 am

where can i download english sub with perfect sync??
09/07/2012 02.19 pm

Thanks , I love Sarahgrin.gifgrin.gif
24/06/2012 04.14 am

thanksgrin.gif
14/03/2012 09.39 pm

i really love them..




ADS