User Info

ADS

Torrent’s details
Name [Re-upload] Unexpected Challenges (CAT III)
  You will need to Register or Login to download!
Info Hash 140dd6708c3e10bb4d7db1a50d4fe204db41db79
Description Adoption program





AKA: The Game of Love
Year: 2000
Directed: Man On Hung
Genre: Erotica
Runtime 1:30:44
Country: Hong Kong
Language: Mandarin
Subtitles: English / Chinese

IMDB:


---File/video technical info---

<Video>
Format                           : AVI
File size                        : 697 MiB
Duration                         : 1h 30mn
Overall bit rate                 : 1 074 Kbps
Codec ID                         : XVID
Duration                         : 1h 30mn
Bit rate                         : 971 Kbps
Width                            : 624 pixels
Height                           : 336 pixels
Display aspect ratio             : 1.857
Frame rate                       : 23.976 fps
Resolution                       : 8 bits
Colorimetry                      : 4:2:0
Bits/(Pixel*Frame)               : 0.193
Stream size                      : 630 MiB (90%)

<Audio>
Codec ID/Hint                    : MP3
Duration                         : 1h 30mn
Bit rate                         : 93.6 Kbps
Nominal bit rate                 : 96.0 Kbps
Sampling rate                    : 32.0 KHz
Stream size                      : 60.7 MiB (9%)
Interleave, duration             : 36 ms (0.86 video frame)
Interleave, preload duration     : 209 ms

Cast:
Shu Qi
Lily Lee Lee-Lee
O Chun-Hung
Lam Ting-Sang
Wang Chung Wang
Kam Shui Cheung
Tsui Bing Ying

Plot:
Win is a retired golf pro who has recently hit hard financial times. His situation isn't helped any when his son's journalist girlfriend Zsa-Zsa (Shu Qi) leaks the story to the press. So Win wages a war to separate the two lovers...despite the fact that his first love was also painfully destroyed by his would-be in-laws years ago.







IMDB
IMDB Extra
More.Info
Category HK - Erotica/+18
Rating
Size 697.18 MB
Show/Hide Files
1 file
AddDate 18/04/2010
Uploader ANONYMOUS
Speed 0 KB/sec
Down 4153 times
peers seeds: 4, leechers: 1 = 5 peers
Who thanked
Report
Reseed


20/04/2014 05.47 am

thanks
20/05/2013 05.02 am

thx for the upload.
warning to the quality fans: it looks like an vhs rip. maybe it's even from a cam - the en subs are disappearing from time to time...
14/06/2012 05.12 am

Thanks
23/11/2011 08.25 am

thanks
22/11/2011 04.55 pm

Nice worksmile1.gif
07/07/2010 02.10 am

thanx!thumbsup.gif
07/06/2010 01.49 am

thanks for the upload...
thumbsup.gif




ADS