User Info

ADS

Torrent’s details
Name The Japanese Wife Next Door (Pinku)
  You will need to Register or Login to download!
Info Hash 1367e316874bafa6d88a5b2c9492ffc6651924ad
Description WARNING: Contain nudity and Strong Sexual Content, this movie may not be suitable for some viewers.



Title: The Japanese Wife Next Door
Year:2004
Directed:  Yutaka Ikejima
Genre: Erotic Comedy
Runtime: 1h 0mn
Country: Japan
Language: Japanese
Subtitles: English (hardcoded)
imdb: http://www.imdb.com/title/tt1439456/


Cast : Reiko Yamaguchi, Naohiro Hirakawa, Kikujiro Honda, and Akane Yazaki

Synopsis/Plot (from Pink Eiga)

A businessman's life is almost complete; all he needs is a wife. He meets two prospective women… But ends up marrying the one who's a secret nympho! Unable to satisfy her lust, the new wife seduces the rest of his family — including the businessman's sister and grandpa!

Directed by “Mr. Pink,” Yutaka Ikejima, and starring the erotic bombshell, Reiko Yamaguchi, the JAPANESE WIFE NEXT DOOR is a hilarious and nasty erotic comedy! The film had its North American premier at the prestigious 2009 New York Asian Film Festival.



Technical Info

Source : Unknown
Format                           : AVI
Format/Info                      : Audio Video Interleave
File size                        : 913 MiB

Video
ID                               : 0
Format                           : MPEG-4 Visual
Format profile                   : Simple@L1
Format settings, BVOP            : No
Format settings, QPel            : No
Format settings, GMC             : No warppoints
Format settings, Matrix          : Default (H.263)
Codec ID                         : DIVX
Codec ID/Info                    : Project Mayo
Codec ID/Hint                    : DivX 4
Duration                         : 1h 0mn
Bit rate                         : 1 975 Kbps
Width                            : 720 pixels
Height                           : 480 pixels
Display aspect ratio             : 4:3
Frame rate                       : 29.970 fps
Standard                         : NTSC
Color space                      : YUV
Chroma subsampling               : 4:2:0
Bit depth                        : 8 bits
Scan type                        : Progressive
Bits/(Pixel*Frame)               : 0.191
Stream size                      : 852 MiB (93%)
Writing library                  : Lavc52.66.0

Audio
ID                               : 1
Format                           : MPEG Audio
Format version                   : Version 1
Format profile                   : Layer 3
Codec ID                         : 55
Codec ID/Hint                    : MP3
Duration                         : 1h 0mn
Bit rate mode                    : Constant
Bit rate                         : 128 Kbps
Channel(s)                       : 2 channels
Sampling rate                    : 44.1 KHz
Stream size                      : 55.2 MiB (6%)
Alignment                        : Aligned on interleaves
Interleave, duration             : 26 ms (0.78 video frame)













NOTES :
This is my 1st attempt in uploading a torrent.
Hopefully It turn up fine.
Please be patient as my upload speed is only up to 20kB/s

 
IMDB
IMDB Extra
More.Info
Category Japan - Erotica/+18
Rating
Size 912.99 MB
Show/Hide Files
1 file
AddDate 25/06/2010
Uploader ANONYMOUS
Speed 15.16 KB/sec
Down 8424 times
peers seeds: 11, leechers: 0 = 11 peers
Who thanked
Report
Reseed


16/04/2014 08.29 am

thank you for the upload...tongue.gif
12/02/2014 10.32 pm

5 minutes ago, i never heard of this... now i cant wait to watch it punk.gif and its all down to our wonderful famiy at asiatorrents
thank you and i/we appriecate all the efforts for our sleazy fun thumbsup.gif
28/10/2012 04.54 pm

hahaha... this is hilarious. thank you very much smile1.gif
31/08/2012 08.25 pm

awesome
10/01/2012 08.10 am

smile1.gif cool movie
10/01/2012 08.10 am

smile1.gif cool movie
05/01/2012 12.18 pm

nice jop bro
30/11/2011 02.05 pm

salamat guy philiines fr thank u
28/11/2011 07.16 am

Thank you.
11/08/2011 08.25 pm

thanksgrin.gifangel.gif
07/08/2011 09.59 am

Trailer is funny http://www.youtube.com/watch?v=Iv8ltpvW4RM
29/07/2011 01.35 pm

Ya not bad, watched this with my gf, we both laughed.

V: 6.9 (lol cant give it 7) A:9   -     massive thank you to the uploader.
10/07/2011 06.10 pm

If you're having Audio problems, try VLC Player and go through the different audio files if any.
I always use VLC because it tends to be the best at playing all video files.
I hope this helps.
cool2.gif
05/05/2011 04.00 pm

I downloaded it fine, but I can't get any audio. sad.gif  I tried many different players.  What are you using that can play the audio as well as the video?  I'm on Win7.
23/04/2011 02.14 pm

i think my wife will  like this! thatongue.gifnk u
20/04/2011 04.32 am

tnx mate![color=red][/color]
10/04/2011 12.59 pm

Good job! Thank you.
03/03/2011 11.13 pm

enjoyed it alot.. when is part 2 coming???
many thanks n pls upload part 2 of this movie....  grin.gif
15/02/2011 02.38 am

Thanks a lot, keep up the great work................
03/02/2011 05.55 am

thank you!
05/01/2011 05.41 pm

Look interesting, thanks! smile1.gif
24/11/2010 09.42 am

great upload mate grin.gif
25/10/2010 07.12 pm

great find! worth seeing again and again! thanks for the upload!!!
09/10/2010 12.34 pm

thanks!!!! thumbsup.gifthumbsup.gifthumbsup.gif
08/10/2010 01.23 pm

Pretty japanese women. English subtitles and something to laugh in times of crisis. My best thanks for this good movie.
25/08/2010 06.24 am

Wow, thanks for this!
19/08/2010 12.49 am

nice one!!!
08/08/2010 06.44 pm

Thanks! very fast download.
very funny movie I enjoyed it...
thanks again
07/08/2010 12.09 pm

Thanks dude..was looking for that since long time... hope you would post part II also.
07/08/2010 07.04 am

NIce...love to see other pink eiga movie...
27/07/2010 04.40 pm

Great movie, thanks for the upload...love it lol....its sick buh enjoyable...please please please can sumone upload the second part. Downloaded fine with Utorrent for me. grin.gif thumbsup.gif
23/07/2010 09.01 pm

thanks
22/07/2010 10.21 am

thanks for thisthumbsup.gif
18/07/2010 02.46 am

this is indeed part 1 and not the 2nd movie.
17/07/2010 03.02 pm

this is part 2 where is part 1
04/07/2010 12.19 pm

i mean the part 2 movie soon. it's already on imbd. thanks again.
04/07/2010 12.17 pm

thanks for this. i hope you could also upload the The Japanese Wife Next Doortongue.gifart 2 movie soonsmile1.gif
27/06/2010 09.27 am

@samurai123

Maybe you can try to change the download folder to another one and see if it helps.
Else you may want to search google on the utorrent "access denied" error to find out more about this issue.

27/06/2010 09.06 am

Yes, utorrent can open it. It starts downloading but after .4%  it give "access denied".. sad.gif
27/06/2010 08.22 am

@samurai123

Are you able to save the torrent file first into your system and then use utorrent to open it?
I'm not sure what the problem is as there are already over few hundreds people manage to d/l it.
27/06/2010 06.40 am

Thanks for sharing. However I couldn't download it. the utorrent gives error "access denied". Does anyone else facing this problem?

Yes, I could download another torrent. So I know the problem is not my end.
26/06/2010 09.28 am

Thank you khanzaiclover.gif
25/06/2010 11.35 pm

thumbsup.gifthumbsup.gifthumbsup.gif

How did a Pinku film got selected in the 2009 New York Asian Film Festival?
25/06/2010 04.17 pm

Great Upload!Thanksthumbsup.gif
25/06/2010 02.47 pm

The private parts are blurred but you should still be able to visualise it.
25/06/2010 02.29 pm

Is this the censored version?




ADS