User Info

ADS

Torrent’s details
Name Doraemon Movie 1st (1980) - Nobita's Dinosaur
  You will need to Register or Login to download!
Info Hash 11e99a240cca223be9b7775f41026c2d8e2bae9a
Description ###################################################################
Product Information
Doraemon Movie 1st - 1980
Movie Title Doraemon: Nobita's Dinosaur
Japanesse Title Doraemon Nobita No Kyoryu
               ドラえもん のび太の恐竜
Release date 1980.03.15
Country Japan
Running time 92 minutes
###################################################################



===================================================================
§§           ★★★            Synopsis            ★★★           §§
===================================================================
Suneo shows everyone a fossil of a dinosaur claw and Nobita is
angry that he doesn't get a look. Nobita claims that he will be
able to find a living dinosaur. Panicking, Nobita researches on
dinosaurs and starts digging in a hill. But then, a landlord shouts
at him and makes him dig a hole in the ground. Nobita unearths a
ball of soil, shaped like an egg. Using time wrap, he returns the
soil into its former form and plans to hatch the egg. A dinosaur
with a long neck comes out, and Nobita decides to name the dinosaur
Piisuke. Suneo and Gian look for him but because Piisuke is too
small, Nobita doesn't show them and instead makes a deal with them.
If he cannot show them a real dinosaur, he would have to eat spaghetti
through his nose. Piisuke grows too big and has to retire to a lake.
He is seen and before Nobita has a chance to show Gian and Suneo,
he is forced to take Pisuke back to his home. Gian and Suneo chase
after Nobita and even Shizuka doesn't believe him. Angry, he begs
Doraemon to show Piisuke to them and realize that the dinosaur is in
danger, as they brought him to the wrong place. They run to the time
machine to fetch him. The time machine breaks and so, they use the
copter to travel, day and night. Then, they are cornered by dinosaur
hunters from the future, who want to take Piisuke from him. They say
they will consider it and during the night, they make clay figures
of themselves, put into clay cars controlled by a remote. The next
day, their plan is discovered, Shizuka, Gian and Suneo are captured.
Doraemon and Nobita rush to save them and all five have to face being
eaten by a ferocious Tyrannosaurus Rex. As he nears, they realize
that this was one of the tame dinosaurs and chase the hunters with
the dinosaur. Shizuka, Suneo and Gian run into police, who put the
dinosaur hunters in prison. Pisuke is taken to his home and all five
of them go home.
....................................................................

%%%%%%%%%%%%%%%%%%%%%%%%%%%%%%%%%%%%%%%%%%%%%%%%%%%
%%           **     Movie  Info     **           %%
%%%%%%%%%%%%%%%%%%%%%%%%%%%%%%%%%%%%%%%%%%%%%%%%%%%
»»»»»»»»»»»»»»»»»»»»»»»»»»»»»»»»»»»»»»»»»»»»»»»»»»»
§§ Directed »
   Hiroshi Fukutomi
§§ Produced »
   Sankichiro Kusube, Soichi Bessho
§§ Written »
   Fujiko F. Fujio
§§ Music »
   Shunsuke Kikuchi
§§ Cinematography »
   Katsuji Misawa
§§ Editing »
   Kazuo Inoue, Seiji Morita
§§ Distributed »
   Toho Company
§§ Language »
   Japanese
§§ Subtitle »
   English
§§ Cast Of Character »
   Doraemon - Nobuyo Ōyama (大山のぶ代?)
   Nobita Nobi - Noriko Ohara (小原乃梨子?)
   Shizuka Minamoto - Michiko Nomura (野村道子?)
   Suneo Honekawa - Kaneta Kimotsuki (肝付兼太?)
   Jian - Kazuya Tatekabe (たてかべ和也?)
§§ Credit »
   http://en.wikipedia.org/wiki/Doraemon:_Nobita's_Dinosaur
   http://www.indowebster.web.id/showthread.php?t=2019
   NYA Anime
«««««««««««««««««««««««««««««««««««««««««««««««««««


◆◆◆◆◆◆◆◆◆◆◆◆◆◆◆◆◆◆◆◆◆◆◆◆◆◆◆◆◆◆◆◆◆◆◆◆◆◆◆◆◆
◆◆◆                      Media Info                    ◆◆◆
◆◆◆◆◆◆◆◆◆◆◆◆◆◆◆◆◆◆◆◆◆◆◆◆◆◆◆◆◆◆◆◆◆◆◆◆◆◆◆◆◆
General
Format                           : AVI
Format/Info                      : Audio Video Interleave
File size                        : 1.36 GiB
Duration                         : 1h 32mn
Overall bit rate                 : 2 102 Kbps
Director                         : created.with.SUPER©.v2007.bld.22
Writing application              : SUPER© by eRightSoft
Writing library                  : VirtualDub build 23774/release

Video
Format                           : MPEG-4 Visual
Format profile                   : Advanced Simple@L5
Format settings, BVOP            : 2
Format settings, QPel            : No
Format settings, GMC             : No warppoints
Format settings, Matrix          : Default (H.263)
Muxing mode                      : Packed bitstream
Codec ID                         : XVID
Codec ID/Hint                    : XviD
Bit rate                         : 1 997 Kbps
Width                            : 640 pixels
Height                           : 480 pixels
Display aspect ratio             : 4:3
Frame rate                       : 25.000 fps
Color space                      : YUV
Chroma subsampling               : 4:2:0
Bit depth                        : 8 bits
Scan type                        : Progressive
Compression mode                 : Lossy
Bits/(Pixel*Frame)               : 0.260
Stream size                      : 1.29 GiB (95%)
Writing library                  : XviD 1.2.1 (UTC 2008-12-04)

Audio
Format                           : MPEG Audio
Format version                   : Version 2
Format profile                   : Layer 3
Codec ID                         : 55
Codec ID/Hint                    : MP3
Bit rate mode                    : Constant
Bit rate                         : 96.0 Kbps
Channel(s)                       : 2 channels
Sampling rate                    : 22.05 KHz
Compression mode                 : Lossy
Stream size                      : 63.4 MiB (5%)
Alignment                        : Split accross interleaves
Interleave, duration             : 40 ms (1.00 video frame)
Interleave, preload duration     : 500 ms
Writing library                  : LAME3.96.1
....................................................................

Screenshot

IMDB No IMDB ID been added..
Category Anime Movie
Rating
Size 1.36 GB
Show/Hide Files
3 files
AddDate 03/12/2011
Uploader ANONYMOUS
Speed 0 KB/sec
Down 160 times
peers seeds: 2, leechers: 0 = 2 peers
Who thanked
Report
Reseed


No comments...




ADS