User Info

ADS

Torrent’s details
Name Ashura-jo no Hitomi (2005) fixed proper rip
  You will need to Register or Login to download!
Info Hash 11bf5630077ecb437a22a6bc0d813d3634cd711d
Description Ashura-jo no Hitomi aka Blood Gets in Your Eyes aka 阿修羅城の瞳.



Year: 2005
Director: Takita Yojiro
Genre: Action, Drama, Fantasy, Romance
Runtime: 01:58:00
Country: Japan
Language: Japanese
Subtitles: English

Cast:
Ichikawa Somegoro - Wakuraba Izumo
Miyazawa Rie - Tsubaki
Higuchi Kanako - Bizan
Watabe Atsuro - Abe Jaku
Kohinata Fumiyo - Tsuruya Nanboku IV
Naito Takashi - Kuninari Nobuyuki
Hotaru Yukijiro - Magotaro
Nakamura Kanzaburo - Nakamura Kanzaburo

Summary:
Adapted from book and successful play of the same title, the film takes place in Edo period in alternative Japan where a war between demons and their slayers is fought. A beautiful oni named Bizan appears on Earth. She wants to bring the demon queen Ashura back to life, so the demons can take over the world beginning in Edo, which is modern day Tokyo. Opposing her is the Oni Makado, an army of demon slayers, which was created by the Japanese government. Izumo once fought with the Makado, but resigned to become a kabuki actor after he thought he accidentally killed a young girl. After 5 years, Izumo encounters Tsubaki, who is a member of a group of an all-female acrobatic troupe who rob the citizens of Edo during the night. Falling deeply in love, Izumo notices a red, ugly scar on Tsubaki's shoulder, which is the mark of the demon queen Ashura. Meanwhile, Jaku, one of Izumo's ex-comrades, falls for Bizan, leading the Oni Makado over to the dark side.

Subs are to be found here: http://www.asiatorrents.com/details.php?id=4c42a597fbf215ee0c397d50bc41a549ae49ccd9

Video
Format                           : MPEG-4 Visual
Format profile                   : Advanced Simple@L5
Format settings, BVOP            : 1
Format settings, QPel            : No
Format settings, GMC             : No warppoints
Format settings, Matrix          : Default (MPEG)
Codec ID                         : XVID
Codec ID/Hint                    : XviD
Duration                         : 1h 58mn
Bit rate                         : 1 311 Kbps
Width                            : 640 pixels
Height                           : 344 pixels
Display aspect ratio             : 1.860
Frame rate                       : 23.976 fps
Color space                      : YUV
Chroma subsampling               : 4:2:0
Bit depth                        : 8 bits
Scan type                        : Progressive
Compression mode                 : Lossy
Bits/(Pixel*Frame)               : 0.248
Stream size                      : 1.09 GiB (87%)
Writing library                  : XviD 1.2.0.dev47 (UTC 2006-11-01)

Audio
Format                           : MPEG Audio
Format version                   : Version 1
Format profile                   : Layer 3
Mode                             : Joint stereo
Mode extension                   : MS Stereo
Emphasis                         : 50/15ms
Codec ID                         : 55
Codec ID/Hint                    : MP3
Duration                         : 1h 58mn
Bit rate mode                    : Constant
Bit rate                         : 192 Kbps
Channel(s)                       : 2 channels
Sampling rate                    : 44.1 KHz
Compression mode                 : Lossy
Delay relative to video          : 26ms
Stream size                      : 163 MiB (13%)
Alignment                        : Split accross interleaves
Interleave, duration             : 42 ms (1.00 video frame)
Interleave, preload duration     : 500 ms

Note:
Nothing's mine, I just downloaded a good rip in another language and compiled it with original audio. Fine movie deserves fine quality, I think. Please enjoy.








IMDB
IMDB Extra
More.Info
Category Japanese Movie
Rating
Size 1.25 GB
Show/Hide Files
1 file
AddDate 23/06/2012
Uploader ANONYMOUS
Speed 0 KB/sec
Down 125 times
peers seeds: 1, leechers: 0 = 1 peers
Who thanked
Report
Reseed


27/06/2012 04.03 pm

Seemed to have some issues with the .srt file but the author fixed them.  Thanks because this was a great movie.




ADS