User Info

ADS

Torrent’s details
Name Two Moons 2012 720p HDRip H264-PREGM
  You will need to Register or Login to download!
Info Hash 107e6580d5d795934e395c3daa37bb50cf1b1147
Description


Code
Profile

Movie: Two Moons (literal title)
Revised romanization: Doo Gaeui Dal
Director: Kim Dong-Bin
Writer: Lee Jong-Ho
Producer: Lee Sang-Cheol
Cinematographer: Yoon Jong-Ho, Cha Sang-Gyun
Release Date: July 12, 2012
Runtime: 86 min.
Genre: Mystery / Horror
Language: Korean
Country: South Korea

Plot

"Two Moons" depicts two women and a man that find themselves in a isolated area without a way out.
So-Hee (Park Han-Byul) is a horror story writer who holds a secret. Seok-Ho (Kim Ji-Seok) is a university student who suffers from an an unidentified trauma. He tries to uncover what that trauma is ...
Cast: Park Han-Byul Kim Ji-Seok Park Jin-Joo












Code
Format : MPEG-4
Format profile : Base Media / Version 2
Codec ID : mp42
File size : 1.68 GiB
Duration : 1h 26mn
Overall bit rate : 2 780 Kbps
Encoded date : UTC 2012-08-08 10:32:53
Tagged date : UTC 2012-08-08 10:32:53
: 00;00;00;00

Video
ID : 1
Format : AVC
Format/Info : Advanced Video Codec
Format profile : Baseline@L3.1
Format settings, CABAC : No
Format settings, ReFrames : 3 frames
Codec ID : avc1
Codec ID/Info : Advanced Video Coding
Duration : 1h 26mn
Bit rate : 2 587 Kbps
Width : 1 280 pixels
Height : 720 pixels
Display aspect ratio : 16:9
Frame rate mode : Constant
Frame rate : 29.970 fps
Standard : NTSC
Color space : YUV
Chroma subsampling : 4:2:0
Bit depth : 8 bits
Scan type : Progressive
Bits/(Pixel*Frame) : 0.094
Stream size : 1.56 GiB (93%)
Language : English
Encoded date : UTC 2012-08-08 10:32:53
Tagged date : UTC 2012-08-08 10:32:53
Material_Duration : 5193493
Material_StreamSize : 1679509354
Material_FrameCount : 155649

Audio
ID : 2
Format : AAC
Format/Info : Advanced Audio Codec
Format profile : LC
Codec ID : 40
Duration : 1h 26mn
Bit rate mode : Variable
Bit rate : 192 Kbps
Maximum bit rate : 290 Kbps
Channel(s) : 2 channels
Channel positions : Front: L R
Sampling rate : 44.1 KHz
Compression mode : Lossy
Stream size : 117 MiB (7%)
Language : English
Encoded date : UTC 2012-08-08 10:32:53
Tagged date : UTC 2012-08-08 10:32:53
Material_Duration : 5193538
Material_StreamSize : 123079234

IMDB No IMDB ID been added..
Category Korean Movie 720p-1080p
Rating
Size 1.68 GB
Show/Hide Files
1 file
AddDate 17/08/2012
Uploader ANONYMOUS
Speed 0 KB/sec
Down 464 times
peers seeds: 2, leechers: 0 = 2 peers
Who thanked
Report
Reseed


16/10/2013 09.34 pm

Can someone please seed this? How is it possible that so many people watch this and there are only two seeds? sad.gif .... It is not for for us who seeds for others. It is because of us seeders that you were able to watch this movie in the first place. Thanks you all for understanding.
08/07/2013 12.50 am

thankscool1.gifcool1.gifcool1.gif
02/06/2013 08.03 pm

polish subs YAY grin.gif Thx
21/05/2013 11.23 am

Thx kr-drama.
16/02/2013 07.43 pm

Thanks for the resynch Tinydevil! The subs I found were so out of synch the movie was unwatchable, but now it's alllll good grin.gif
21/01/2013 01.48 pm

Thx Tiny, I'll check it later, thx in advance!
21/01/2013 09.13 am

https://www.box.com/s/kqcud6p9fyhs2gd20ulu
this is the en sub , credit from king of beer , re timed by me
first time i do it hope it does not violate any rulegrin.gif
02/01/2013 10.45 am

waiting for english subs.
16/12/2012 07.39 pm

eng subs would be great cry.gif
10/12/2012 03.40 pm

eng subsss plzzzz....
30/11/2012 01.15 pm

I wish i could understand this ;_;
09/11/2012 11.47 am

eng subs?
23/10/2012 05.38 am

eng subs?
05/10/2012 07.51 pm

please seed
30/09/2012 10.33 pm

this movie is fantastic! thanks for sharing.
30/09/2012 03.56 am

Thanks!
26/09/2012 03.37 am

can someone plz translate this movie ? the wait is getting better of me tongue.gif
06/09/2012 11.41 am

eng subs?
19/08/2012 08.24 pm

ERm, why does it say it has English when it actually does not? No English audio or subs O.o It'd be nice to know we were downloading what was stated, then we wouldn't feel like we just wasted bandwidth with a movie we can't watch sad.gif Are there any eng subs forthcoming?
19/08/2012 12.05 am

The description is off, the audio is in Korean only and there are no subs.
17/08/2012 02.23 pm

I really liked the male leading lead in the I Need Romance drama. Ah, such memories, warm drama. Fell free totry it out if u haven't already.
17/08/2012 11.12 am

Looks interesting...eng subs?
I am I reading the description correctly? This has an english audio stream?




ADS