User Info

ADS

Torrent’s details
Name The Devil HDTV x264 720p NotoriouS
  You will need to Register or Login to download!
Info Hash 10325ca54f3788b60e372cba0e18efb62ee6f421
Description

Details

   * Title: 마왕 (魔王) / Mawang
   * English title: The Devil
   * Also known as: Satan / Lucifier / Devil Times
   * Episodes: 20
   * Broadcast network: KBS2
   * Broadcast period: 2007-Mar-21 to 2007-May-24
   * Air time: Wednesday & Thursday 9:55 PM
   * Related shows: Maou (TBS, 2008)
   subs: eng.softsubs

Synopsis

When Homicide Detective Kang Oh Soo hit a dead end in his investigation of two seemly unrelated murders, except for the Tarot cards left behind at both crime scenes, he sought help from Seo Hae In, a woman with Token-object reading ability. She revealed that the killers were different in each murder, but the victims were chosen for their connection to a death of a high school boy. Later, the cases proved to have one more thing in common: the suspects have the same defense attorney, Oh Seung Ha.

Seung Ha's defense for his clients severely shaken Oh Soo's conviction to catch the Tarot Card mastermind. Oh Soo was reminded that years ago he had killed a high school classmate in a fight. He was acquitted of all charges and began his life anew. Now, someone has came back to revenge the boy's wrongful death by killing those who got him off.
Cast

   * Joo Ji Hoon as Oh Seung Ha
   * Uhm Tae Woong as Kang Oh Soo
   * Shin Min Ah as Seo Hae In

Police detectives

   * Joo Jin Mo as Ban Chang Ho (chief detective)
   * Park Gri Na as Lee Min Jae
   * Kim Young Joon as Shin Jae Min

Oh Soo's family

   * Jung Dong Hwan as Kang Dong Hyun (Oh Soo's father)
   * Choi Duk Moon as Kang Hee Soo (Oh Soo's older brother)
   * Yoon Hye Kyung as Choi Na Hee (Hee Soo's wife)

Oh Soo's friends

   * Kim Young Jae as Na Suk Jin ((Hee Soo's assistant))
   * Oh Yong as Kim Soon Ki (ex-prison inmate)
   * Han Jung Soo as Yoon Dae Shik (private money lender)

Other people

   * Jo Jae Wan as Kim Young Chul
   * Lee Bo Hee as Yeo Soon Ock (Hae In's mute mother)
   * Lee Eun as Gong Joo Hee (Hae In's best friend)
   * Kim Gyu Chul as Cha Gwang Doo (lawyer, former detective}
   * Im Seung Dae as Hwang Soo Gun
   * Park Kwang Jung as Mo In Ho
   * Kim Kyung Ik as Reporter Sung Joon Pyo
   * Lee Sung Min
   * Lee Min Hee as (lost girl sheltered in Hae In and her mother's house)
   * Kim Yoon Suk
   * Yoo Yeon Soo as Jo Dong Sub
   * Lee Do Ryun as Gwan Hyun Tae
   * Jun Ye Seo as Oh Seung Hee (Seung Ha's sister)
   * Kwak Jung Wook as young Tae Seung
   * Park Chul Ho as Jung Tae Hoon (Tae Seung's older brother)
   * Go Ju Yun as young Hae In
   * Suh Joon Young as young Oh Soo
   * Choi Jae Hwan
   * Seol Sung Min
   * Oh Hyun Chul

Production Credits

   * Production: Olive9
   * Chief Producer: Lee Duk Gun
   * Director: Park Chan Hong
   * Screenwriter: Kim Ji Woo

Format                           : AVI
Format/Info                      : Audio Video Interleave
File size                        : 1.37 GiB
Duration                         : 1h 6mn
Overall bit rate                 : 2 955 Kbps
Writing application              : VirtualDubMod 1.5.10.2 (build 2540/release)
Writing library                  : VirtualDubMod build 2540/release

Video
ID                               : 0
Format                           : AVC
Format/Info                      : Advanced Video Codec
Format profile                   : High@L5.1
Format settings, CABAC           : Yes
Format settings, ReFrames        : 6 frames
Codec ID                         : H264
Duration                         : 1h 6mn
Bit rate                         : 2 751 Kbps
Width                            : 1 280 pixels
Height                           : 720 pixels
Display aspect ratio             : 16:9
Frame rate                       : 29.970 fps
Resolution                       : 8 bits
Colorimetry                      : 4:2:0
Scan type                        : Progressive
Bits/(Pixel*Frame)               : 0.100
Stream size                      : 1.28 GiB (93%)
Writing library                  : x264 core 50 svn-569
Encoding settings                : cabac=1 / ref=3 / deblock=1:1:1 / analyse=0x3:0x133 / me=umh / subme=5 / brdo=0 / mixed_ref=1 / me_range=16 / chroma_me=1 / trellis=1 / 8x8dct=1 / cqm=0 / chroma_qp_offset=0 / slices=1 / nr=0 / decimate=1 / bframes=3 / b_pyramid=1 / b_adapt=1 / b_bias=0 / direct=2 / wpredb=1 / bime=0 / keyint=250 / keyint_min=25 / scenecut=60 / rc=2pass / bitrate=2751 / ratetol=1.0 / rceq='blurCplx^(1-qComp)' / qcomp=0.60 / qpmin=10 / qpmax=51 / qpstep=4 / cplxblur=20.0 / qblur=0.5 / ip_ratio=1.40 / pb_ratio=1.30

Audio
ID                               : 1
Format                           : AC-3
Format/Info                      : Audio Coding 3
Codec ID                         : 2000
Duration                         : 1h 6mn
Bit rate mode                    : Constant
Bit rate                         : 192 Kbps
Channel(s)                       : 2 channels
Channel positions                : L R
Sampling rate                    : 48.0 KHz
Video delay                      : 7ms
Stream size                      : 91.1 MiB (6%)
Alignment                        : Split accross interleaves
Interleave, duration             : 33 ms (1.00 video frame)
Interleave, preload duration     : 500 ms

IMDB No IMDB ID been added..
Category Korean TV 720p-1080p
Rating
Size 27.35 GB
Show/Hide Files
40 files
AddDate 03/09/2010
Uploader ANONYMOUS
Speed 8.01 KB/sec
Down 423 times
peers seeds: 2, leechers: 1 = 3 peers
Who thanked
Report
Reseed


14/05/2014 12.40 pm

please upload with some small size
20/04/2014 05.50 pm

Me again.  Thank you SO much seeders for joining in, allowing me to download.  Superior quality video here. <3
18/04/2014 11.38 pm

Sadly, connected for 20 hours and was only able to download 3% in spite of there being at least 6 seeders listed online.cry.gif
18/04/2014 02.48 am

Very excited to see this one, I heard it was good.  Hopefully some bandwidth opens up on the download or more seeders connect soon...?  Very slow right now confused.gif
12/07/2013 10.42 pm

great stuff thanks!
01/02/2013 01.07 am

Thank You! Very Good Drama!
19/11/2010 08.46 pm

Hells yeah, so gonna grab this! Thanks!
18/10/2010 05.37 pm

thank you ver much !!smile1.gif
12/09/2010 02.23 am

Firstly thanks.

Secondly the description does contain some pretty heavy spoilers, but its the same description as drama wiki, so totally not the uploaders fault.  Good news is the spoilers only cover the first 5 or 6 episodes, maybe a lot less depending on how smart you are smile1.gif

I thought the entire 20 gigs I downloaded was gonna be ruined.
04/09/2010 09.59 am

many thankssmile1.gif
03/09/2010 04.04 pm

Here we go againangel.gif another one I can´t resist! What is it about HD uploads that I can´t get away from???

Many thanks uploaderthumbsup.gifthumbsup.gifthumbsup.gif




ADS