User Info

ADS

Torrent’s details
Name Smile, Dong Hae 2010 Complete Small
  You will need to Register or Login to download!
Info Hash 0d55d9f1e0a939e2182c0a28e3a51448d1740631
Description






Title: 웃어라 동해야 / Useora Donghaeya
Also known as: Smile, Dong Hae / Smile Again
Genre: Family
Episodes: 159
Broadcast network: KBS1
Broadcast period: 2010-Oct-04 to 2011-May-13
Air time: Monday to Friday 20:25

Brief Info
Dong Hae was raised in America by his beautiful but unmarried and mentally deficient mother, Anna Laker, who was adopted there. He goes to Korea for a short-track skating competition and brings his mother along in secret, arranging for her to be picked up at the airport by his girlfriend, Yoon Sae Wa, an ambitious TV announcer who harbours a secret disdain for Anna's disability. Dong Hae meets Bong Yi, a poor assistant chef, when Sae Wa prioritizes her job and sends her to meet Anna instead. After Sae Wa later betrays him, Dong Hae begins to search for his father, creating a new family and finding new romance along the way.

General
Complete name                    : Smile Dong-Hae 001.mp4
Format                           : MPEG-4
Format profile                   : Base Media
Codec ID                         : isom
File size                        : 131 MiB
Duration                         : 40mn 32s
Overall bit rate                 : 452 Kbps
Encoded date                     : UTC 2011-07-07 20:25:31
Tagged date                      : UTC 2011-07-07 20:25:31

Video
ID                               : 1
Format                           : AVC
Format/Info                      : Advanced Video Codec
Format profile                   : High@L3.1
Format settings, CABAC           : Yes
Format settings, ReFrames        : 8 frames
Codec ID                         : avc1
Codec ID/Info                    : Advanced Video Coding
Duration                         : 40mn 32s
Bit rate mode                    : Variable
Bit rate                         : 400 Kbps
Maximum bit rate                 : 891 Kbps
Width                            : 640 pixels
Height                           : 424 pixels
Display aspect ratio             : 3:2
Frame rate mode                  : Constant
Frame rate                       : 29.970 fps
Color space                      : YUV
Chroma subsampling               : 4:2:0
Bit depth                        : 8 bits
Scan type                        : Progressive
Bits/(Pixel*Frame)               : 0.049
Stream size                      : 116 MiB (89%)
Title                            : Video
Writing library                  : x264 core 104 r1683 62997d6
Encoding settings                : cabac=1 / ref=8 / deblock=1:-2:-1 / analyse=0x3:0x133 / me=umh / subme=6 / psy=1 / psy_rd=1.00:0.00 / mixed_ref=1 / me_range=16 / chroma_me=1 / trellis=1 / 8x8dct=1 / cqm=0 / deadzone=21,11 / fast_pskip=0 / chroma_qp_offset=-4 / threads=3 / sliced_threads=0 / nr=0 / decimate=1 / interlaced=0 / constrained_intra=0 / bframes=16 / b_pyramid=2 / b_adapt=1 / b_bias=0 / direct=3 / weightb=1 / open_gop=0 / weightp=2 / keyint=250 / keyint_min=25 / scenecut=40 / intra_refresh=0 / rc=2pass / mbtree=0 / bitrate=400 / ratetol=1.0 / qcomp=0.60 / qpmin=10 / qpmax=51 / qpstep=4 / cplxblur=20.0 / qblur=0.5 / ip_ratio=1.40 / pb_ratio=1.30 / aq=0
Encoded date                     : UTC 2011-07-07 20:25:31
Tagged date                      : UTC 2011-07-07 20:25:38

Audio
ID                               : 2
Format                           : AAC
Format/Info                      : Advanced Audio Codec
Format profile                   : HE-AAC / LC
Codec ID                         : 40
Duration                         : 40mn 32s
Bit rate mode                    : Variable
Bit rate                         : 48.0 Kbps
Maximum bit rate                 : 53.5 Kbps
Channel(s)                       : 2 channels
Channel positions                : Front: L R
Sampling rate                    : 48.0 KHz / 24.0 KHz
Compression mode                 : Lossy
Stream size                      : 13.9 MiB (11%)
Language                         : English
Encoded date                     : UTC 2011-07-07 20:25:37
Tagged date                      : UTC 2011-07-07 20:25:38

ENGLISH HARDSUBBED

Cast

Ji Chang Wook as Dong Hae / Karl Laker
Do Ji Won as Anna Laker / Jo Dong Baek (Dong Hae's mother)

Lee family

Im Chae Moo as Lee Kang Jae
Lee Bo Hee as Gye Sun Ok
Alex as Lee Tae Hoon
Oh Ji Eun as Lee Bong Yi
Kim Yoo Suk as Lee Pil Jae
Lee Joon Ha (이준하) as Lee Song Yi (Pil Jae's daughter)

Kim family

Kang Suk Woo as Kim Joon
Jung Ae Ri as Hong Hye Sook
Lee Jang Woo as Kim Do Jin

Yoon family

Park Hae Mi as Byun Sool Nyeo
Park Jung Ah as Yoon Sae Wa
Lee Joo Yeon as Yoon Sae Young

Other people

Kim Sung Won as Jo Pil Yong (Anna's birth father)
Jung Young Sook as Kim Mal Sun (Anna's birth mother)
Choi Yoon So as Baek Yoo Jin
Lee Jung Ho as Lee Dae Sam
Kang Chul Sung (강철성) as Home Shopping PD
Jung Eun Woo (정은우) as Kim Sun Woo
Kim Sung Hoon as policeman
Kim Jin Soo as Bang Ki Nam
Kim Yoon Hee (김윤희) as Jung Soon Hye
Shin Dong Yub (신동엽) as hotel restaurant kitchen assistant (cameo)
Yoon Jong Shin (윤종신)as hotel restaurant kitchen assistant (cameo)
Seo Hye Jin (서혜진)
Kim Yoon Tae

Production Credits

Producer: Moon Bo Hyun
Director: Kim Myung Wook, Mo Wan Il (모완일)
Screenwriter: Moon Eun Ah
IMDB No IMDB ID been added..
Category Korean TV
Rating
Size 18.86 GB
Show/Hide Files
159 files
AddDate 26/04/2012
Uploader ANONYMOUS
Speed 58.75 KB/sec
Down 377 times
peers seeds: 5, leechers: 1 = 6 peers
Who thanked
Report
Reseed


01/01/2013 10.17 pm

thank you for uploading this drama smile1.gif
28/07/2012 01.19 am

Thank for share this with us ^^ i love it this drama and too love it jungAh




ADS