User Info

ADS

Torrent’s details
Name The Marriage Plot/The Wedding Scheme (2012) 720p Complete
  You will need to Register or Login to download!
Info Hash 0cd4b596f97c362aaac1a72a055a8a07ad82f294
Description

Details

Title: 결혼의 꼼수 / Gyeolhonui Kkomsoo
Also known as: The Wedding Scheme
Genre: Romance, comedy
Episodes: 16
Broadcast network: tvN
Broadcast period: 2012-Apr-02 to 2012-May-28
Air time: Monday & Tuesday 23:00

English Subtitles by The Wedding Dress Team @viki.com

Synopsis
A mother of four daughters and the president of a kimchi factory decides to embark on a grand marriage scheme for her children... by having them cohabitate with four eligible bachelors.

Cast
Kang Hye Jung as Yoo Gun Hee
Lee Kyu Han as Lee Kang Jae
Lee Young Eun as Yoo Sun Hee
Lee Min Woo as Seo Jang Won
Kim Se Jung as Yoo Min Jung
Park Min Ji as Yoo Min Ji
Seo Jae Kyung as Kim Dol Soon
Kim Jae Deuk (김재득) as Park Se Won
Kim Won Joon as Park Soo Ho
Cha Hwa Yun as So Doo Ryun
Yoon Joo Sang as Lee Hak Goon
Jung Seung Ho as Jang Duk Pal
Kim Ik Tae as Director Park
Park Ga Won (박가원) as Lee Ha Na




Code
Video
ID                                       : 1
Format                                   : AVC
Format/Info                              : Advanced Video Codec
Format profile                           : Main@L3.1
Format settings, CABAC                   : Yes
Format settings, ReFrames                : 5 frames
Codec ID                                 : avc1
Codec ID/Info                            : Advanced Video Coding
Duration                                 : 45mn 15s
Bit rate                                 : 1 672 Kbps
Maximum bit rate                         : 9 078 Kbps
Width                                    : 1 280 pixels
Height                                   : 720 pixels
Display aspect ratio                     : 16:9
Frame rate mode                          : Constant
Frame rate                               : 29.970 fps
Color space                              : YUV
Chroma subsampling                       : 4:2:0
Bit depth                                : 8 bits
Scan type                                : Progressive
Bits/(Pixel*Frame)                       : 0.061
Stream size                              : 541 MiB (93%)
Writing library                          : x264 core 120 r2164 da19765
Encoding settings                        : cabac=1 / ref=5 / deblock=1:0:0 / analyse=0x1:0x131 / me=umh / subme=9 / psy=1 / psy_rd=1.00:0.00 / mixed_ref=1 / me_range=16 / chroma_me=1 / trellis=2 / 8x8dct=0 / cqm=0 / deadzone=21,11 / fast_pskip=1 / chroma_qp_offset=-2 / threads=16 / sliced_threads=0 / nr=0 / decimate=1 / interlaced=0 / bluray_compat=0 / constrained_intra=0 / bframes=3 / b_pyramid=2 / b_adapt=2 / b_bias=0 / direct=3 / weightb=1 / open_gop=0 / weightp=2 / keyint=250 / keyint_min=25 / scenecut=40 / intra_refresh=0 / rc_lookahead=60 / rc=crf / mbtree=1 / crf=22.0 / qcomp=0.60 / qpmin=0 / qpmax=51 / qpstep=4 / ip_ratio=1.40 / aq=1:1.00
Encoded date                             : UTC 2012-04-02 23:08:11
Tagged date                              : UTC 2012-04-02 08:31:31

Audio
ID                                       : 2
Format                                   : AAC
Format/Info                              : Advanced Audio Codec
Format profile                           : LC
Codec ID                                 : 40
Duration                                 : 45mn 15s
Bit rate mode                            : Variable
Bit rate                                 : 128 Kbps
Maximum bit rate                         : 144 Kbps
Channel(s)                               : 2 channels
Channel positions                        : Front: L R
Sampling rate                            : 48.0 KHz
Compression mode                         : Lossy
Stream size                              : 41.4 MiB (7%)
Encoded date                             : UTC 2012-04-02 08:31:27
Tagged date                              : UTC 2012-04-02 08:31:31


IMDB No IMDB ID been added..
Category Korean TV 720p-1080p
Rating
Size 14.45 GB
Show/Hide Files
16 files
AddDate 04/08/2012
Uploader ANONYMOUS
Speed 16.47 KB/sec
Down 587 times
peers seeds: 5, leechers: 2 = 7 peers
Who thanked
Report
Reseed


28/11/2013 10.24 pm

Seed please!!!sleep.gifsleep.gifsleep.gifsleep.gifsleep.gifsleep.gif
06/11/2013 07.02 pm

Thanks grin.gif
07/09/2013 12.48 pm

On a second though never mind. Found a complete subtitle in DarkSmurfSub's website. If you guy find those missing parts to be annoying, just go there and get it.

Cheers
07/09/2013 12.37 pm

Last 10 or so minutes of EP 4 is missing the subs. If anyone knows a better link, please share.

Thanks,
06/02/2013 07.57 pm

Any chance of getting this series in avi format? thanks anyway! angel.gif
16/09/2012 06.34 am

To speedlimit55. I don't know if you synced the subs for ep 16 jet. I had the same problem and I just noticed that you can use the subs for 450p when watching 720p. That is, same sync for both.
06/08/2012 06.04 am

Could someone advise me how to fix the timing of the subtitles for episode 16.  Thank You!!!
05/08/2012 12.49 am

waaaah! ive been waiting for these subs! as expected of you! your the best subs provider kingofbeer!! thank you so much for your hardwork! smile1.gif can i also ask for all the viki subs of i love lee tae ri?? please? thank you so much. im really grateful to you. smile1.gif




ADS