User Info

ADS

Torrent’s details
Name Naked human nature XviD [No Eng Subs]
  You will need to Register or Login to download!
Info Hash 0c237bfd4f440915b06544c61cc048c37e9d7df0
Description Warning: Nudity | Sex | Violence



Title: Naked human nature [No Eng Subs]
Also Known As: 赤裸人性
Cast: Kitty Lai, Chun Yin, Louise Wong
Directed: Anastasia Tsang, Ches Yim, Siu Lung Lee, Ling Nip
Genre: Horror, Thriller, Drama
Runtime: 119 minutes
Release Date: 2012
Country: Hong Kong
Language: Cantonese
Subtitles: Chinese only No English Sub

Description:
The movie comprised of three stories which are based on true events in real life. The movie has also participated in Cannes film festival for short film.

Part One, Mariage sans Frontieres

When a transsexual becomes a homosexual. Born male, Terrence claims to have a female soul. After coming out, he breaks up with his girlfriend and behaves as a woman. Then she begins searching for love that transcends the borders between male & female. Main actress is a transsexual in real life.

Part Two, Sin World

Sin World is a story based on a terrifying true event in Hong Kong. A common adolescent decided to save his mother and sister, by killing them. Surprisingly, the murderer was unexpectedly calm with no regrets, and claimed that the world has too many sinners.

Part Three, Cry2

A girl was being kidnapped by a man who enjoys being in animal behavior. He locked her up in a warehouse. She became lunatic after being raped and tortured; her subconscious state is deeply ruined when she can never escape in reality.

References: http://www.fareastfilms.com/newsPage/Naked-Human-Nature-On-HK-DVD-4200.htm
http://www.hkfilmart.com/filmart/screening_details.asp?id=953




General
Complete name                            : Naked human nature
Format                                   : AVI
Format/Info                              : Audio Video Interleave
Format profile                           : OpenDML
File size                                : 1.38 GiB
Duration                                 : 1h 19mn
Overall bit rate                         : 2 496 Kbps

Video
ID                                       : 0
Format                                   : MPEG-4 Visual
Format profile                           : Advanced Simple@L5
Format settings, BVOP                    : 2
Format settings, QPel                    : No
Format settings, GMC                     : No warppoints
Format settings, Matrix                  : Default (H.263)
Muxing mode                              : Packed bitstream
Codec ID                                 : XVID
Codec ID/Hint                            : XviD
Duration                                 : 1h 19mn
Bit rate                                 : 2 361 Kbps
Width                                    : 1 000 pixels
Height                                   : 560 pixels
Display aspect ratio                     : 16:9
Frame rate                               : 29.970 fps
Original frame rate                      : 25.000 fps
Color space                              : YUV
Chroma subsampling                       : 4:2:0
Bit depth                                : 8 bits
Scan type                                : Progressive
Compression mode                         : Lossy
Bits/(Pixel*Frame)                       : 0.141
Stream size                              : 1.30 GiB (95%)
Writing library                          : XviD 1.2.0.dev47 (UTC 2006-11-01)

Audio
ID                                       : 1
Format                                   : MPEG Audio
Format version                           : Version 1
Format profile                           : Layer 2
Codec ID                                 : 50
Duration                                 : 1h 19mn
Bit rate mode                            : Constant
Bit rate                                 : 128 Kbps
Channel(s)                               : 2 channels
Sampling rate                            : 44.1 KHz
Compression mode                         : Lossy
Stream size                              : 72.3 MiB (5%)
Alignment                                : Split accross interleaves
Interleave, duration                     : 968 ms (29.00 video frames)

IMDB No IMDB ID been added..
Category HK - Erotica/+18
Rating
Size 1.38 GB
Show/Hide Files
1 file
AddDate 31/01/2013
Uploader ANONYMOUS
Speed 0 KB/sec
Down 1670 times
peers seeds: 11, leechers: 0 = 11 peers
Who thanked
Report
Reseed


01/02/2014 01.56 am

nowadays, CAT 3 movies are weak!
31/01/2013 03.51 pm

Do I need to check "initial Seeding" to increase the speed of seeding? Using BitTorrent 7.7.3




ADS