User Info

ADS

Torrent’s details
Name Montage.2013.DVDRip.AC3.x264-LooKMaNe
  You will need to Register or Login to download!
Info Hash 0b1a01df182995866b9ce003a6105ec02f424747
Description

Movie: Montage
Revised romanization: Mongtajoo
Hangul: 몽타주
Director: Jung Geun-Sub
Writer: Jung Geun-Sub
Producer: Ahn Young-Jin
Cinematographer: Lee Jong-Youl
Release Date: May 16, 2013
Runtime: 120 min.
Genre: Thriller / Mystery / Crime
Distributor: Next Entertainment World
Language: Korean
Country: South Korea
IMDB link: http://www.imdb.com/title/tt2969522/reference

Cast:
Kim Sang-kyung as Cheong-ho
Uhm Jung-hwa as Ha-kyung
Song Young-chang
Jo Hee-bong
Jung Hae-kyun
Gi Ju-bong

Plot:
Nearly 15 years ago, Ha-Kyung's (Uhm Jung-Hwa) daughter is kidnapped. Detective Chung-Ho (Kim Sang-Kyung) works obsessively on the case, but his efforts go in vain. Ha-Kyung's daughter is found dead and the kidnapper slips away without a trace.

Now, with only five days left before the statue of limitations applies on the murder case, Detective Chung-Ho goes back to the scene of the crime and discovers a white flower left there. Only the kidnapper, the police and Ha Kyung are aware where the murder took place. Detective Chung-Ho again works frantically to find the killer before time runs out on the case.

Grandfather Han-Chul (Song Young-Chang) leaves his granddaughter out in her apartment's playground while he goes inside to answer the phone. Han-Chul quickly discovers that his granddaughter has been kidnapped. The police later notice similarities between this kidnapping and the abduction of Ha Kyung's daughter 15 years earlier. Detective Chung-Ho is drawn into the new abduction case, while Ha Kyung works in the background to find her daughter's killer.


Subtitles: English, Korean idx/sub embedded

MEDIAINFO
Spoiler:show


SOURCE: DVD9 by miamaria @ ADC

General
Unique ID                                : 187447658519785224776229959696168631081 (0x8D051B194DBAB2F7940FE439CEE9BB29)
Complete name                            : Montage.2013.DVDRip.AC3.x264-LooKMaNe.mkv
Format                                   : Matroska
Format version                           : Version 4 / Version 2
File size                                : 983 MiB
Duration                                 : 2h 0mn
Overall bit rate                         : 1 144 Kbps
Encoded date                             : UTC 2013-09-06 10:36:18
Writing application                      : mkvmerge v6.3.0 ('You can't stop me!') built on Jun 28 2013 20:09:41
Writing library                          : libebml v1.3.0 + libmatroska v1.4.0

Video
ID                                       : 1
Format                                   : AVC
Format/Info                              : Advanced Video Codec
Format profile                           : High@L3.1
Format settings, CABAC                   : Yes
Format settings, ReFrames                : 16 frames
Codec ID                                 : V_MPEG4/ISO/AVC
Duration                                 : 2h 0mn
Bit rate                                 : 673 Kbps
Width                                    : 720 pixels
Height                                   : 380 pixels
Display aspect ratio                     : 1.85:1
Original display aspect ratio            : 1.895
Frame rate mode                          : Constant
Frame rate                               : 23.976 fps
Color space                              : YUV
Chroma subsampling                       : 4:2:0
Bit depth                                : 8 bits
Scan type                                : Progressive
Bits/(Pixel*Frame)                       : 0.103
Stream size                              : 578 MiB (59%)
Writing library                          : x264 core 138 r2358 9e941d1
Encoding settings                        : cabac=1 / ref=16 / deblock=1:-1:-1 / analyse=0x3:0x133 / me=umh / subme=11 / psy=1 / psy_rd=1.00:0.15 / mixed_ref=1 / me_range=32 / chroma_me=1 / trellis=2 / 8x8dct=1 / cqm=0 / deadzone=21,11 / fast_pskip=0 / chroma_qp_offset=-3 / threads=12 / lookahead_threads=2 / sliced_threads=0 / nr=0 / decimate=1 / interlaced=0 / bluray_compat=0 / constrained_intra=0 / bframes=8 / b_pyramid=2 / b_adapt=2 / b_bias=0 / direct=3 / weightb=1 / open_gop=0 / weightp=2 / keyint=240 / keyint_min=23 / scenecut=40 / intra_refresh=0 / rc_lookahead=60 / rc=crf / mbtree=1 / crf=18.0 / qcomp=0.60 / qpmin=0 / qpmax=69 / qpstep=4 / vbv_maxrate=17500 / vbv_bufsize=17500 / crf_max=0.0 / nal_hrd=none / ip_ratio=1.40 / aq=1:1.00
Default                                  : Yes
Forced                                   : No

Audio
ID                                       : 2
Format                                   : AC-3
Format/Info                              : Audio Coding 3
Mode extension                           : CM (complete main)
Format settings, Endianness              : Big
Codec ID                                 : A_AC3
Duration                                 : 2h 0mn
Bit rate mode                            : Constant
Bit rate                                 : 448 Kbps
Channel count                            : 6 channels
Channel positions                        : Front: L C R, Side: L R, LFE
Sampling rate                            : 48.0 KHz
Bit depth                                : 16 bits
Compression mode                         : Lossy
Stream size                              : 385 MiB (39%)
Language                                 : Korean
Default                                  : Yes
Forced                                   : No

Text #1
ID                                       : 3
Format                                   : VobSub
Muxing mode                              : zlib
Codec ID                                 : S_VOBSUB
Codec ID/Info                            : The same subtitle format used on DVDs
Language                                 : English
Default                                  : Yes
Forced                                   : No

Text #2
ID                                       : 4
Format                                   : VobSub
Muxing mode                              : zlib
Codec ID                                 : S_VOBSUB
Codec ID/Info                            : The same subtitle format used on DVDs
Language                                 : Korean
Default                                  : No
Forced                                   : No







IMDB
IMDB Extra
More.Info
Category Korean Movie
Rating
Size 982.86 MB
Show/Hide Files
1 file
AddDate 06/09/2013
Uploader ANONYMOUS
Speed 0 KB/sec
Down 3228 times
peers seeds: 83, leechers: 1 = 84 peers
Who thanked
Report
Reseed


29/03/2014 06.58 pm

Thank You LookMaNe.
Now I really need more ratio  sad.gif
06/01/2014 03.15 am

thank you, great movie
05/01/2014 08.59 pm

Thxcool2.gif
23/12/2013 08.43 am

Video quality not so good lo... but thx anyway
19/11/2013 05.53 pm

The writing was pretty clever, I didn't see that coming. Uhm Jung-hwa stole the screen with every tear coming from her. Guess I love Korean movies for such movie like this smile1.gif
14/11/2013 08.19 pm

I think this movie needs a higher rating smile1.gif enjoyed it till the last moment.
30/10/2013 05.03 pm

Thanks for uploading this one, looking forward to see it!
24/10/2013 02.43 pm

Thank you!grin.gif
24/10/2013 11.59 am

woowwww... what a movie !!! Thank u guys again fr d uploadgrin.gif
23/10/2013 03.05 pm

Thank uuuuu very much smile1.gif grin.gif
13/10/2013 03.09 pm

Thank you.
28/09/2013 10.26 am

Very recent movie !!
Got great ratings too !
Thanks for the upload , will definitely see the movie.
23/09/2013 02.03 pm

Thank you smile2.gif
23/09/2013 12.34 pm

the kind of movie that will keep ur eyes on it til the end grin.gif awesome movie !!
20/09/2013 09.21 pm

excelent movie!
20/09/2013 01.50 pm

Thank you so much.grin.gif
15/09/2013 03.32 am

Very good movie. Agree with the other comments, twist at the end. Deserves a higher rating, 9/10
11/09/2013 03.26 pm

Wow, this is a GREAT movie! thanks for the upload!
10/09/2013 02.48 am

great thriller so far in 2013 korean cinema!grin.gif
09/09/2013 01.09 am

thanks man for this incredible movie. it's a sad story.  Great twist at the end.  
08/09/2013 12.08 am

Nice job man, like always, one of the best uploader! Keep good work! wink.gif
07/09/2013 04.16 pm

Also Many thanks to 4lyn !
07/09/2013 04.11 pm

Many thanksssss!!!!
07/09/2013 12.38 pm

Thanksss!
07/09/2013 10.36 am

Download the .SRT uploaded by 4lyn or use MKVCleaver to extract the subs.
07/09/2013 04.53 am

please extract the idx/sub files...
07/09/2013 12.36 am

Just done downloading and briefly viewed a few parts. Looks good, but then again LookMaNe uploaded it. Always got good stuff.
07/09/2013 12.22 am

are the subs any good
06/09/2013 04.25 pm

thanks!
06/09/2013 12.40 pm

Would it be possible for you to extract the subs?
Thx
06/09/2013 10.53 am

Thanks!smile1.gif




ADS