User Info

ADS

Torrent’s details
Name Girl.K.2011.Complete.XviD-HiGHNiX
  You will need to Register or Login to download!
Info Hash 0afddadc49f00c73be148efd7bea03ded0d32e08
Description


Title: 소녀K / Sonyeo K
Also known as: Girl K / Girl Killer
Genre: Action, thriller
Episodes: 3
Broadcast network: CGV
Broadcast period: 2011-Aug-27 to 2011-Sep-10
Air time: Saturday 24:00



Synopsis
Cha Yeon Jin is a high school girl whose outwardly normal existence and reticent character masks her true identity: she is a professional assassin who is seeking vengeance for her mother after watching her killed in front of her eyes. She infiltrates SS1, the secret organization that her mother was connected to, by becoming one of their killers, all the while trying to track down her mother's murderer.


Subtitles : None


http://www.chcgv.com/series/girl_K/main.asp

http://www.hancinema.net/korean_drama_Little_Girl_K.php



  General
     Format : AVI
     Format/Info : Audio Video Interleave
     File size : 701 MiB
     Duration : 1h 5mn
     Overall bit rate : 1 506 Kbps
     Writing application : 한글VirtualDubMod 1.5.10.1 (build 2366/release)
     Writing library : VirtualDubMod build 2366/release
  Video #0
     ID : 0
     Format : MPEG-4 Visual
     Format profile : AdvancedSimple@L5
     Format settings, BVOP : Yes
     Format settings, QPel : No
     Format settings, GMC : No warppoints
     Format settings, Matrix : Default (H.263)
     Muxing mode : Packed bitstream
     Codec ID : XVID
     Codec ID/Hint : XviD
     Duration : 1h 5mn
     Bit rate : 1 367 Kbps
     Width : 624 pixels
     Height : 352 pixels
     Display aspect ratio : 16:9
     Frame rate : 29.970 fps
     Resolution : 24 bits
     Colorimetry : 4:2:0
     Scan type : Progressive
     Bits/(Pixel*Frame) : 0.208
     Stream size : 636 MiB (91%)
     Writing library : XviD 61
  Audio #1
     ID : 1
     Format : MPEG Audio
     Format version : Version 1
     Format profile : Layer 3
     Codec ID : 55
     Codec ID/Hint : MP3
     Duration : 1h 5mn
     Bit rate mode : Constant
     Bit rate : 128 Kbps
     Channel(s) : 2 channels
     Sampling rate : 48.0 KHz
     Resolution : 16 bits
     Stream size : 59.5 MiB (8%)
     Alignment : Aligned on interleaves
     Interleave, duration : 33 ms (1.00 video frame)
     Interleave, preload duration : 504 ms





IMDB No IMDB ID been added..
Category Korean TV
Rating
Size 3.45 GB
Show/Hide Files
10 files
AddDate 11/09/2011
Uploader ANONYMOUS
Speed 4.86 KB/sec
Down 380 times
peers seeds: 0, leechers: 0 = 0 peers
Who thanked
Report
Reseed


02/10/2011 12.41 pm

Its is being fansubbed. It will come soon. Patience is a virtue smile1.gif
02/10/2011 11.32 am

Episode 1 and 2 Only have Eng Sub? noexpression.gif
How about Episode 3 >.< cry.gif
17/09/2011 06.46 am

Wow although a TV series, it plays like a movie.

Definitely watch it on the 720p HD version if you can.
17/09/2011 02.20 am

This series is 3 episodes long, right?

What's the 1.39 GB [Mnet] 소녀 K 비하인드-나는액션돌이다.CATV.avi file? Behind-the-scenes stuffs?
12/09/2011 05.08 am

Thank you uloveha smile1.gif




ADS