User Info

ADS

Torrent’s details
Name Quenchless Desire 1993 (CAT III)
  You will need to Register or Login to download!
Info Hash 06ba6fe92ced1f268c0db35db28de24c4115b6e7
Description






AKA: None
Year: 1993
Directed: Tin Daai Paang
Genre: Erotica
Runtime 1:32:07
Country: Hong Kong
Language: Cantonese
Subtitles: English / Chinese



---File/video technical info---

<Video>
Format                           : AVI
File size                        : 554 MiB
Overall bit rate                 : 840 Kbps
Writing application              : VirtualDubMod 1.5.10.2 (build 2540/release)
Writing library                  : VirtualDubMod build 2540/release
Format                           : AVC
Codec ID                         : H264
Bit rate                         : 639 Kbps
Width                            : 736 pixels
Height                           : 512 pixels
Display aspect ratio             : 1.438
Frame rate                       : 23.976 fps
Resolution                       : 12 bits
Bits/(Pixel*Frame)               : 0.071
Stream size                      : 421 MiB (76%)

<Audio>
Format                           : AC-3
Codec ID                         : 2000
Bit rate mode                    : Constant
Bit rate                         : 192 Kbps
Channel(s)                       : 2 channels
Channel positions                : L R
Sampling rate                    : 48.0 KHz
Stream size                      : 127 MiB (23%)
Alignment                        : Split accross interleaves
Interleave, duration             : 42 ms (1.00 video frame)
Interleave, preload duration     : 500 ms

Cast:
Wong Wing Fong
Lee Yee Ha
Cheung Wai
Yuen King-Tan
Hoh Man Gui
Daisy

Plot:
A Hong Kong version of "Fatal Attraction". A man has a one-time affair with a woman while he's wife gone, and then the woman refuses to let him go, even going so far as to befriend his wife and kidnap his daughter.

Thanks to original ripper





IMDB
IMDB Extra
More.Info
Category HK - Erotica/+18
Rating N/A
Size 553.56 MB
Show/Hide Files
1 file
AddDate 19/09/2009
Uploader ANONYMOUS
Speed 0 KB/sec
Down 554 times
peers seeds: 2, leechers: 0 = 2 peers
Who thanked
Report
Reseed


09/06/2012 08.51 pm

Tnx....
11/04/2011 03.46 pm

THANK YOU VERY MUCH




ADS