User Info

ADS

Torrent’s details
Name The Duo.E12.110315.HDTV.X264.720p-HANrel
  You will need to Register or Login to download!
Info Hash 03f7274bccaaf83ee6d939220b1d28524dff6ad3
Description


http://wiki.d-addicts.com/The_Duo

Details
Title: 짝패 / Jjak Pae
Also known as: Mate
Genre: Period, romance
Episodes: 20
Broadcast network: MBC
Broadcast period: 2011-Feb-07 to 2011-TBA
Air time: Monday & Tuesday 21:55
Language: Korean
Subtitle: English

Synopsis
The drama tells the story of two men who were switched at birth. A twist of fate results in Chun Doong, who is of noble birth, living his life as a slave and later becoming a heroic outlaw, while Gwi Dong was born as a beggar but lives Chun Dong's life as a nobleman, growing up to become a police chief. They both fall in love with the same girl, Dong Nyeo.

CastChun Jung Myung as Chun Doong
No Young Hak as young Chun Doong
Lee Sang Yoon as Gwi Dong
Choi Woo Shik (최우식) as young Gwi Dong
Han Ji Hye as Dong Nyeo
Jin Se Yun as young Dong Nyeo
Seo Hyun Jin as Dal Yi
Lee Sun Young (이선영) as young Dal Yi
Lee Moon Shik as Jang Kkok Ji
Jung In Ki as Soe Dol
Kwon Oh Joong as Kang Po Soo
Seo Yi Sook (서이숙) as Keun Nyeo
Ahn Yeon Hong as Ja Geun Nyeon
Jung Kyung Ho as Kkul Tteok
Kang Ji Sub as Jin Deuk
Park Dae Won (박대원) as young Jin Deuk
Lee Shin Sung (이신성) as Do Gap
Choi Woo Hyuk as young Do Gap
Kim Ki Bang as Gom Chi
Jo Chang Geun (조창근) as Poong Gae
Kim Kyung Jin (김경진) Mal Son
Choi Jong Hwan as Dr. Kim Jae Ik
Im Chae Won as Lady Kwon
Lee Seol Ah as Geum Ok
Kim So Hyun as young Geum Ok
Kim Myung Soo as Hyun Gam
Jung Han Hun as Mr. Park
Ra Mi Ran (라미란) as Eob Deuk Ne
Lee Ji Soo as Sam Wol
Kang Shin Il as Sung Cho Shi
Baek Jong Hak (백종학) as Yoo Sun Dal
Im Hyun Sik as Old Man Hwang
Yoon Yoo Sun as Mak Soon
Yoon Yong Hyun as Choon Bo
Gong Hyung Jin as Gong Po Gyo
Jung Chan as Jo Sun Dal
Jang Yong Hee (장용희) as Pan Sool
Chi Woo (치우) as young Pan Sool
Im Dae Ho as But Deul's father
Yoon Hong Bin (윤홍빈) as young Won Chil
Yang Mi Kyung as Chun Doong's mother
Baek Sung Heum (백성흠) as young But Deul
Kim Woo Suk (김우석) as young Se Gap

Production Credits
Producer: Choi Yi Sub (최이섭)
Director: Im Tae Woo, Kim Geun Hong (김근홍)
Screenwriter: Kim Woon Kyung

General
Complete name                    : The Duo.E12.110315.HDTV.X264.720p-HANrel.avi
Format                           : AVI
Format/Info                      : Audio Video Interleave
File size                        : 1.53 GiB
Duration                         : 1h 3mn
Overall bit rate                 : 3 460 Kbps
Writing application              : VirtualDubMod 1.5.10.2 (build 2540/release)
Writing library                  : VirtualDubMod build 2540/release

Video
ID                               : 0
Format                           : AVC
Format/Info                      : Advanced Video Codec
Format profile                   : High@L5.1
Format settings, CABAC           : Yes
Format settings, ReFrames        : 2 frames
Codec ID                         : H264
Duration                         : 9s 943ms
Bit rate                         : 3 000 Kbps
Width                            : 1 280 pixels
Height                           : 720 pixels
Display aspect ratio             : 16:9
Frame rate                       : 29.970 fps
Color space                      : YUV
Chroma subsampling               : 4:2:0
Bit depth                        : 8 bits
Scan type                        : Progressive
Bits/(Pixel*Frame)               : 0.109
Stream size                      : 1.33 GiB (87%)
Writing library                  : x264 core 50 svn-569

Audio
ID                               : 1
Format                           : AC-3
Format/Info                      : Audio Coding 3
Mode extension                   : CM (complete main)
Codec ID                         : 2000
Duration                         : 1h 3mn
Bit rate mode                    : Constant
Bit rate                         : 448 Kbps
Channel(s)                       : 2 channels
Channel positions                : Front: L R
Sampling rate                    : 48.0 KHz
Bit depth                        : 16 bits
Compression mode                 : Lossy
Delay relative to video          : 23ms
Stream size                      : 203 MiB (13%)
Alignment                        : Split accross interleaves
Interleave, duration             : 33 ms (1.00 video frame)
Interleave, preload duration     : 500 ms

Screenshots:

IMDB No IMDB ID been added..
Category Korean TV 720p-1080p
Rating N/A
Size 1.53 GB
Show/Hide Files
2 files
AddDate 23/03/2011
Uploader ANONYMOUS
Speed 0 KB/sec
Down 70 times
peers seeds: 0, leechers: 0 = 0 peers
Who thanked
Report
Reseed


23/03/2011 08.42 pm





ADS