User Info

ADS

Torrent’s details
Name Romantic Princess (2007) Complete Series (hardsubbed)
  You will need to Register or Login to download!
Info Hash 02a779325acc944f32ccf45b99d09380e0010967
Description

http://wiki.d-addicts.com/Romantic_Princess
http://en.wikipedia.org/wiki/Romantic_Princess
http://mydramalist.info/dramas/view/422

Title: 公主小妹 / Gong Zhu Xiao Mei
English title: Romantic Princess
Episodes: 13
Genre: Romance / comedy
Broadcast network: CTV / GTV
Broadcast period: 2007-Sep-16 to 2007-Dec-09
Air time: Sunday 22:00-23:30
Opening theme song: Xin Wo by Fahrenheit and S.H.E
Ending theme song: Bu Xiang Dong De by Angela Zhang
Language: Mandarin
Country: Taiwan
Subtitles: English (hardsubbed)

Production Credits
Producer: Jerry Feng 馮家瑞 / Wang Xin Gui 王信貴 / Huang Wan Bo
Director: Lin He Long
Screenwriter: Qi Yang Lin 齊鍚麟 / Lu Shi Yuan 呂蒔媛 / Lin Xin Hui 林欣慧 / Liu Rue Xuan 劉蕊瑄 / Xu Yu Hua 徐玉樺

Main Cast
Wu Chun as Nan Feng Jin 南風瑾
Angela Zhang as Mai Qiu Sui (Huangfu Shan) 麥秋穗(皇甫珊)
Calvin Chen as Nan Feng Cai 南風彩
Gu Bao Ming as Huangfu Xiong (EMP) 皇甫雄
George Hu as Nan Feng Lin 南風璘
Li Ang Lin as Nan Feng Ying 南風影
Genie Cho as Gong Mo Li 宮茉莉
Hsia Ching Ting as Yi Sen Chuan 伊森川
Bu Xue Liang as Mai Cong Guang 麥聰光
Phoebe Huang as Mai Ge Hao Wa 麥戈浩娃

Synopsis
Adopted by middle classed parents, Xiao Mai has always had a dream to be an heiress. Who knew that one day this dream would come true. Xiao Mai's biological grandfather is the head of a prestigous aristocratic family and after many years of searching, he finally finds his long lost granddaughter. As she starts her life as an heiress, everyday is filled with excitement, however, everything seems a bit different from what she had imagined them to be.

General
Complete name                    : [SUBlimes]Romantic Princess - 01.mp4
Format                           : MPEG-4
Format profile                   : Base Media
Codec ID                         : isom
File size                        : 400 MiB
Duration                         : 1h 11mn
Overall bit rate                 : 785 Kbps

Video
ID                               : 1
Format                           : AVC
Format/Info                      : Advanced Video Codec
Format profile                   : Main@L5.1
Format settings, CABAC           : Yes
Format settings, ReFrames        : 1 frame
Codec ID                         : avc1
Codec ID/Info                    : Advanced Video Coding
Duration                         : 1h 11mn
Bit rate mode                    : Variable
Bit rate                         : 689 Kbps
Maximum bit rate                 : 2 778 Kbps
Width                            : 608 pixels
Height                           : 456 pixels
Display aspect ratio             : 4:3
Frame rate mode                  : Constant
Frame rate                       : 29.970 fps
Color space                      : YUV
Chroma subsampling               : 4:2:0
Bit depth                        : 8 bits
Scan type                        : Progressive
Bits/(Pixel*Frame)               : 0.083
Stream size                      : 351 MiB (88%)
Writing library                  : x264 core 57 svn-699C

Audio
ID                               : 2
Format                           : AAC
Format/Info                      : Advanced Audio Codec
Format version                   : Version 4
Format profile                   : LC
Format settings, SBR             : No
Codec ID                         : 40
Duration                         : 1h 11mn
Bit rate mode                    : Variable
Bit rate                         : 93.6 Kbps
Maximum bit rate                 : 137 Kbps
Channel(s)                       : 2 channels
Channel positions                : Front: L R
Sampling rate                    : 44.1 KHz
Stream size                      : 47.7 MiB (12%)


IMDB No IMDB ID been added..
Category Taiwanese TV
Rating
Size 5.11 GB
Show/Hide Files
17 files
AddDate 29/01/2011
Uploader ANONYMOUS
Speed 0 KB/sec
Down 880 times
peers seeds: 9, leechers: 2 = 11 peers
Who thanked
Report
Reseed


12/04/2014 09.59 pm

Thank you so much! I'm seeding. ^^
07/11/2013 09.37 am

Thank you so much wub.gifwub.gifwub.gif
13/04/2013 03.25 pm

Thank you!
26/07/2012 11.44 am

thanks a lot i really like this drama  
07/08/2011 03.23 am

thank you smile1.gif
11/06/2011 08.17 pm

thanx so much grin.gif
27/05/2011 01.33 pm

thanks...
10/04/2011 10.38 am

i love wu chun too much! thank god they have it here.
31/01/2011 06.16 pm

thx .... i luuuv this drama ^^




ADS