User Info

ADS

Torrent’s details
Name Princess Princess D (2006) Complete Series
  You will need to Register or Login to download!
Info Hash 02562b75ae2da36b9f7ed8e0dd2cb22b0f4383e3
Description

http://wiki.d-addicts.com/Princess_Princess_D
http://en.wikipedia.org/wiki/Princess_Princess_D
http://asianmediawiki.com/Princess_Princess_D

Title: プリンセス・プリンセスD
Title (romaji): Princess Princess D
Genre: Romance / Comedy
Episodes: 10
Broadcast network: TV Asahi
Broadcast period: 2006-Jun-28 to 2006-Sep-15
Theme song: VEGA by midnightPumpkin
Language: Japanese
Country: Japan
Subtitles: English (hardsubbed)

Cast
Kamakari Kenta as Yutaka Mikoto
Fujita Rei as Shihoudani Yuujirou
Sato Takeru as Kouno Tooru
Saito Takumi as Arisada Shuuya
Adachi Osamu as Sakamoto Akira
Nakamura Yuichi as Hanazono Otoya
Shibuya Kento as Minamoto Kurou
Kazuma as Mori Ranta
Ishiguro Hideo as Kujouin Haruka
Minami Shota as Koshino Masayuki
Sato Haruhiko as Harue Wataru
Yoshihara Hiroshi as Tadasu Takahiro
Yamamoto Kohei as Nadashou Kaoru

Synopsis
In all-boys school with a tradition of Princesses (boys chosen to attend school functions dressed up as girls to alleviate the tension between the students), Yutaka Mikoto, Shihoudani Yuujirou and Kouno Tooru are this year's chosen Princess team. Dissatisfied with the half-hearted efforts of the current Princesses, Hanazono Otoya creates his own team of Dark Princesses to rival for the students' attention.
Based on the shoujo manga Princess Princess, by Mikiyo Tsuda.


General
Complete name                    : Princess Princess D - 01.avi
Format                           : AVI
Format/Info                      : Audio Video Interleave
File size                        : 160 MiB
Duration                         : 23mn 29s
Overall bit rate                 : 953 Kbps
Writing library                  : VirtualDub-MPEG2 build 24458/release

Video
ID                               : 0
Format                           : MPEG-4 Visual
Format settings, BVOP            : Yes
Format settings, QPel            : No
Format settings, GMC             : No warppoints
Format settings, Matrix          : Default (H.263)
Muxing mode                      : Packed bitstream
Codec ID                         : DX50
Codec ID/Hint                    : DivX 5
Duration                         : 23mn 29s
Bit rate                         : 781 Kbps
Width                            : 640 pixels
Height                           : 368 pixels
Display aspect ratio             : 16:9
Frame rate                       : 29.970 fps
Color space                      : YUV
Chroma subsampling               : 4:2:0
Bit depth                        : 8 bits
Scan type                        : Progressive
Bits/(Pixel*Frame)               : 0.111
Stream size                      : 131 MiB (82%)
Writing library                  : DivX 6.2.5 (UTC 2006-07)

Audio
ID                               : 1
Format                           : MPEG Audio
Format version                   : Version 1
Format profile                   : Layer 3
Mode                             : Joint stereo
Mode extension                   : MS Stereo
Codec ID                         : 55
Codec ID/Hint                    : MP3
Duration                         : 23mn 29s
Bit rate mode                    : Constant
Bit rate                         : 160 Kbps
Channel(s)                       : 2 channels
Sampling rate                    : 48.0 KHz
Stream size                      : 26.9 MiB (17%)
Alignment                        : Split accross interleaves
Interleave, duration             : 33 ms (1.00 video frame)
Interleave, preload duration     : 500 ms


IMDB
IMDB Extra
More.Info
Category Japanese TV
Rating
Size 1.50 GB
Show/Hide Files
13 files
AddDate 19/02/2011
Uploader ANONYMOUS
Speed 0.12 KB/sec
Down 438 times
peers seeds: 3, leechers: 0 = 3 peers
Who thanked
Report
Reseed


11/09/2013 07.14 pm

Thank you so much! ^^
11/09/2013 07.13 pm

Thank you so much! ^^
21/02/2013 02.10 pm

Please seed?
26/10/2012 04.36 pm

Thank you very much.
I'm looking for this drama for a long time smile1.gif
12/04/2011 12.22 pm

Thx




ADS