User Info

ADS

Torrent’s details
Name To.the.Beautiful.You.E01.120815.HDTV.H264.450p-HANrel
  You will need to Register or Login to download!
Info Hash 58c0c1f2724a91d679efc89b117203c3bb0974d3
Description


http://wiki.d-addicts.com/To_The_Beautiful_You
http://www.hancinema.net/korean_drama_To_The_Beautiful_You.php
http://asianwiki.com/To_The_Beautiful_You
http://wizard2.sbs.co.kr/foryou

Title: 아름다운 그대에게 / Areumdawun Geodaeege
Also known as: To the Beautiful You / Hana Kimi
Genre: Romance, Comedy
Episodes: 16
Broadcast network: SBS
Broadcast period: 2012-Aug-15 to 2012-Oct-04
Air time: Wednesday & Thursday 21:55
Related TV shows: Hanazakari no Kimitachi e, Hanazakari no Kimitachi e 2011, Hua Yang Shao Nian Shao Nu
Language: Korean
Country: South Korea
Subtitles: English (credit to Viki, thanks to kingofbeer)

Production Credits
Original Work: Manga Hana-Kimi by Hisaya Nakajo
Production Company: SM Entertainment
Director: Jun Ki Sang
Screenwriter: Lee Young Chul

Main Cast
   Choi Seol Ri as Goo Jae Hee
   Min Ho as Kang Tae Joon
   Lee Hyun Woo as Cha Eun Kyul
   Kim Ji Won as Seol Han Na
   Suh Joon Young as Ha Seung Ri
   Kang Ha Neul as Joo Ji Chul
   Hwang Kwang Hee as Song Jong Min

Extended Cast
   Yoo Min Kyu as Jo Young Man
   Kim Ian (김이안) as Na Chul Soo
   Ki Tae Young as Doctor Jang Min Woo
   Lee Young Eun as Korean teacher Lee So Jung
   Kang Kyung Joon as Athletic team coach Baek Gwang Min
   Lee Han Wie as Hwang Gye Bong
   Sun Woo Jae Duk as Kang Geun Wook
   Ahn Hye Kyung as Sports reporter Yang Seo Yoon
   Lee Ah Hyun as Jang Sil Jang (Director of sports management company)
   Julien Kang as Daniel
   Yoo Ra (유라) as Lee Eun Young
   Jung Eun Joo (정은주) as Hong Bo Hee
   Song Soo Ji (송수지) as Shin Myung Hwa
   Se Hoon (세훈) as student
   Chan Yul (찬열) as student
   Soo Ho (수호) as student
   Baek Hyun (백현) as student
   Kai (카이) as student
   D.O. (디오) as student
   Kris (크리스) as foreign student
   Lay (레이) as foreign student
   Lu Han (루한) as foreign student
   Sangchu (상추) as muscle student (cameo, ep 1)


Synopsis
The series centers on Goo Jae Hee, a Korean girl who lives in the United States. One day, she sees a track and field competition on TV, and becomes attracted to one of the high jump competitors, Kang Tae Joon. She begins to idolize the young athlete and eventually transfers to Korea to attend the same school that Tae Joon attends after he suffers an accident that could potentially end his career. There is a catch, however: Tae Joon attends an all-boys high school and Jae Hee must disguise herself as a boy to enter.



General
Complete name                  : To.the.Beautiful.You.E01.120815.HDTV.H264.450p-HANrel.avi
Format                         : AVI
Format/Info                    : Audio Video Interleave
File size                      : 803 MiB
Duration                       : 1h 3mn
Overall bit rate               : 1 777 Kbps

Video
ID                             : 0
Format                         : AVC
Format/Info                    : Advanced Video Codec
Format profile                 : High@L5.1
Format settings, CABAC         : Yes
Format settings, ReFrames      : 2 frames
Codec ID                       : H264
Duration                       : 1h 3mn
Bit rate                       : 1 570 Kbps
Width                          : 800 pixels
Height                         : 450 pixels
Display aspect ratio           : 16:9
Frame rate                     : 29.970 fps
Color space                    : YUV
Chroma subsampling             : 4:2:0
Bit depth                      : 8 bits
Scan type                      : Progressive
Bits/(Pixel*Frame)             : 0.146
Stream size                    : 711 MiB (89%)
Writing library                : x264 core 50 svn-569

Audio
ID                             : 1
Format                         : AC-3
Format/Info                    : Audio Coding 3
Mode extension                 : CM (complete main)
Format settings, Endianness    : Big
Codec ID                       : 2000
Duration                       : 1h 3mn
Bit rate mode                  : Constant
Bit rate                       : 192 Kbps
Channel(s)                     : 2 channels
Channel positions              : Front: L R
Sampling rate                  : 48.0 KHz
Bit depth                      : 16 bits
Compression mode               : Lossy
Stream size                    : 86.7 MiB (11%)


IMDB
IMDB Extra
More.Info
Category Korean TV
Rating
Size 804.46 MB
Show/Hide Files
5 files
AddDate 15/08/2012
Uploader ANONYMOUS
Speed 0 KB/sec
Down 212 times
peers seeds: 0, leechers: 0 = 0 peers
Who thanked
Report
Reseed


16/08/2012 08.08 pm

Thanks for this!!




ADS